Начать новую тему Ответить на тему
Статистика раздачи
Размер: 577.04 МБ | Добавлен: 26 июн 2020, 17:58 | Скачали: 0
Сидеров: 0  [0 байт/сек]    Личеров: 0  [0 байт/сек]
Пред. тема | След. тема 

Автор
Сообщение

СообщениеДобавлено: 26 июн 2020, 17:58 

Ответить с цитатой 

Solitary Experiments - Paradox [Totally Recharged]
Жанр: EBM industrial
Год выпуска диска: 2006
Производитель диска: (Out Of Line, Germany)
Аудио кодек: FLAC
Тип рипа: image+.cue
Битрейт аудио: lossless
Продолжительность: 1:17:04.00
Трэклист:
1. Inferno (Prelude) [2:51]
2. Glory And Honour (Survival mix) [5:25]
3. Terrible Reality [5:41]
4. Paradox [4:31]
5. Another Day Is Gone! [5:43]
6. Final Frontier [4:41]
7. Deep In My Heart... [5:09]
8. When The Love Seems Lost [4:55]
9. God, Where Are You (Anti-Krist mix by Suicide Commando) [5:21]
10. Bleak Prospects (Sick Society mix by Second Disease) [4:23]
11. Soldiers Of Fortune (Self-Defence mix by Megadump) [5:06]
12. Another Day Is Gone! (Full Speed Version by Mechanical Horizon) [4:36]
13. Paradox (Modified E-Motion mix) [5:09]
14. Glory And Honour (Battlefield mix) [4:35]
15. Terrible Reality (Paranoia Dream mix by Sacred Complex) [4:41]
16. God, Where Are You? (Delusion mix by Sacred Complex) [4:17]
Код:
Exact Audio Copy V0.99 prebeta 4 from 23. January 2008
Отчёт EAC об извлечении, выполненном 19. июня 2009, 15:51
Solitary Experiments / Paradox (Totally Recharged)
Дисковод: Optiarc DVD RW AD-7170A   Adapter: 0  ID: 0
Режим чтения                 : Достоверность
Использование точного потока : Да
Отключение кэша аудио        : Да
Использование указателей C2  : Нет
Коррекция смещения при чтении                     : 48
Способность читать области Lead-in и Lead-out     : Нет
Заполнение пропущенных сэмплов тишиной            : Да
Удаление блоков с тишиной в начале и конце        : Нет
При вычислениях CRC использовались нулевые сэмплы : Да
Интерфейс                                         : Встроенный Win32-интерфейс для Win NT/2000
Выходной формат          : Пользовательский кодировщик
Выбранный битрейт        : 1024 kBit/s
Качество                 : Высокий
Добавление ID3-тэга      : Нет
Утилита сжатия           : C:\Program Files\Exact Audio Copy\FLAC\FLAC.EXE
Дополнительные параметры : -6 -V -T "ARTIST=%a" -T "TITLE=%t" -T "ALBUM=%g" -T "DATE=%y" -T "TRACKNUMBER=%n" -T "GENRE=%m" -T "COMMENT=%e" %s -o %d
TOC извлечённого CD
     Трек |   Старт  | Длительность | Начальный сектор | Конечный сектор
    ---------------------------------------------------------------------
       1  |  0:00.00 |    2:51.09   |           0      |      12833
       2  |  2:51.09 |    5:25.07   |       12834      |      37215
       3  |  8:16.16 |    5:41.10   |       37216      |      62800
       4  | 13:57.26 |    4:30.60   |       62801      |      83110
       5  | 18:28.11 |    5:42.38   |       83111      |     108798
       6  | 24:10.49 |    4:40.58   |      108799      |     129856
       7  | 28:51.32 |    5:08.67   |      129857      |     153023
       8  | 34:00.24 |    4:55.24   |      153024      |     175172
       9  | 38:55.48 |    5:21.16   |      175173      |     199263
      10  | 44:16.64 |    4:22.69   |      199264      |     218982
      11  | 48:39.58 |    5:05.61   |      218983      |     241918
      12  | 53:45.44 |    4:35.72   |      241919      |     262615
      13  | 58:21.41 |    5:09.36   |      262616      |     285826
      14  | 63:31.02 |    4:34.42   |      285827      |     306418
      15  | 68:05.44 |    4:41.34   |      306419      |     327527
      16  | 72:47.03 |    4:16.72   |      327528      |     346799
Характеристики диапазона извлечения и сообщения об ошибках
Выбранный диапазон
     Имя файла D:\Мои документы\Solitary Experiments - Paradox (Totally Recharged).wav
     Пиковый уровень 97.7 %
     Качество диапазона 99.9 %
     CRC теста 1D70D2B9
     CRC копии 1D70D2B9
     Копирование... OK
Ошибок не произошло
Конец отчёта
Правила, инструкции, FAQ!!!
Торрент  Добавлен [26 июн 2020, 17:58] Скачать торрент Магнет ссылка
Скачать торрент
[ Размер 12.31 КБ / Просмотров 11 ]

Статус
Проверен 
 
Размер  577.04 МБ
Приватный: Нет (DHT включён)
.torrent скачан  0
 


     Отправить личное сообщение
   
Страница 1 из 1
Показать сообщения за:  Поле сортировки  
Начать новую тему Ответить на тему


Сейчас этот форум просматривают: нет зарегистрированных пользователей и гости: 0


Вы не можете начинать темы
Вы не можете отвечать на сообщения
Вы не можете редактировать свои сообщения
Вы не можете удалять свои сообщения
Вы не можете добавлять вложения

Перейти:  
cron