Начать новую тему Ответить на тему
Статистика раздачи
Размер: 576.09 МБ | Добавлен: 26 июн 2020, 17:14 | Скачали: 0
Сидеров: 0  [0 байт/сек]    Личеров: 0  [0 байт/сек]
Пред. тема | След. тема 

Автор
Сообщение

СообщениеДобавлено: 26 июн 2020, 17:14 

Ответить с цитатой 

Solitary Experiments - Final Assault [Totally Recharged]
Жанр: EBM industrial
Год выпуска диска: 2006
Производитель диска: (Out Of Line, Germany)
Аудио кодек: FLAC
Тип рипа: image+.cue
Битрейт аудио: lossless
Продолжительность: 1:18:00.00
Трэклист:
1. Dein Fleisch (re-[animated] Edit 2001 by Solitary Experiments) [5:32]
2. Paradox (Apocalypse mix by Mechanical Horizon) [5:55]
3. Land Of Tomorrow (Desperation mix by Fiction 8) [4:53]
4. Glory & Honour (Deception & Pride mix by Inertia) [4:37]
5. God, Where Are You? (Inferno mix by Sacred Complex) [4:30]
6. Paradox (Somnambulist mix by Sleepwalk) [5:20]
7. Another Day Is Gone! (Dismantled by Ionic Vision) [4:30]
8. Glory & Honour (Project-X mix) [3:27]
9. Final Frontier (Translocator mix by System Der Dinge) [5:32]
10. Paradox (Avada Kedavra mix by God Module) [4:40]
11. Another Day Is Gone! (Reconstructed Version by Diverje) [4:52]
12. Glory & Honour (Visions Of War by Final Illusion) [5:11]
13. Terrible Reality (In Denial by Seven Trees) [5:17]
14. God, Where Are You? (Tanz Der Hoelle mix by Sacred Complex) [4:36]
15. Glory & Honour (Dance-Capacity-remix by E-Craft) [4:08]
16. Glory & Honour (Gandh Tas rmx by To Avoid) [5:00]
Код:
Exact Audio Copy V0.99 prebeta 4 from 23. January 2008
Отчёт EAC об извлечении, выполненном 19. июня 2009, 16:41
Solitary Experiments / Final Assault (Totally Recharged)
Дисковод: Optiarc DVD RW AD-7170A   Adapter: 0  ID: 0
Режим чтения                 : Достоверность
Использование точного потока : Да
Отключение кэша аудио        : Да
Использование указателей C2  : Нет
Коррекция смещения при чтении                     : 48
Способность читать области Lead-in и Lead-out     : Нет
Заполнение пропущенных сэмплов тишиной            : Да
Удаление блоков с тишиной в начале и конце        : Нет
При вычислениях CRC использовались нулевые сэмплы : Да
Интерфейс                                         : Встроенный Win32-интерфейс для Win NT/2000
Выходной формат          : Пользовательский кодировщик
Выбранный битрейт        : 1024 kBit/s
Качество                 : Высокий
Добавление ID3-тэга      : Нет
Утилита сжатия           : C:\Program Files\Exact Audio Copy\FLAC\FLAC.EXE
Дополнительные параметры : -6 -V -T "ARTIST=%a" -T "TITLE=%t" -T "ALBUM=%g" -T "DATE=%y" -T "TRACKNUMBER=%n" -T "GENRE=%m" -T "COMMENT=%e" %s -o %d
TOC извлечённого CD
     Трек |   Старт  | Длительность | Начальный сектор | Конечный сектор
    ---------------------------------------------------------------------
       1  |  0:00.00 |    5:32.19   |           0      |      24918
       2  |  5:32.19 |    5:55.17   |       24919      |      51560
       3  | 11:27.36 |    4:53.15   |       51561      |      73550
       4  | 16:20.51 |    4:37.30   |       73551      |      94355
       5  | 20:58.06 |    4:29.53   |       94356      |     114583
       6  | 25:27.59 |    5:19.46   |      114584      |     138554
       7  | 30:47.30 |    4:29.70   |      138555      |     158799
       8  | 35:17.25 |    3:26.40   |      158800      |     174289
       9  | 38:43.65 |    5:32.09   |      174290      |     199198
      10  | 44:15.74 |    4:39.53   |      199199      |     220176
      11  | 48:55.52 |    4:51.52   |      220177      |     242053
      12  | 53:47.29 |    5:11.29   |      242054      |     265407
      13  | 58:58.58 |    5:17.29   |      265408      |     289211
      14  | 64:16.12 |    4:35.53   |      289212      |     309889
      15  | 68:51.65 |    4:08.11   |      309890      |     328500
      16  | 73:00.01 |    4:59.74   |      328501      |     350999
Характеристики диапазона извлечения и сообщения об ошибках
Выбранный диапазон
     Имя файла D:\Мои документы\Solitary Experiments - Final Assault (Totally Recharged).wav
     Пиковый уровень 96.6 %
     Качество диапазона 99.9 %
     CRC теста 8E58681F
     CRC копии 8E58681F
     Копирование... OK
Ошибок не произошло
Конец отчёта
Правила, инструкции, FAQ!!!
Торрент  Добавлен [26 июн 2020, 17:14] Скачать торрент Магнет ссылка
Скачать торрент
[ Размер 12.32 КБ / Просмотров 12 ]

Статус
Проверен 
 
Размер  576.09 МБ
Приватный: Нет (DHT включён)
.torrent скачан  0
 


     Отправить личное сообщение
   
Страница 1 из 1
Показать сообщения за:  Поле сортировки  
Начать новую тему Ответить на тему


Сейчас этот форум просматривают: нет зарегистрированных пользователей и гости: 0


Вы не можете начинать темы
Вы не можете отвечать на сообщения
Вы не можете редактировать свои сообщения
Вы не можете удалять свои сообщения
Вы не можете добавлять вложения

Перейти:  
cron