Начать новую тему Ответить на тему
Статистика раздачи
Размер: 345.34 МБ | Добавлен: 26 июн 2020, 16:54 | Скачали: 0
Сидеров: 0  [0 байт/сек]    Личеров: 0  [0 байт/сек]
Пред. тема | След. тема 

Автор
Сообщение

СообщениеДобавлено: 26 июн 2020, 16:54 

Ответить с цитатой 

Sleepwalk - No Compromise
Жанр: EBM, Industrial
Год выпуска диска: 2003
Производитель диска: Scanner Records, Germany
Аудио кодек: FLAC
Тип рипа: image+.cue
Битрейт аудио: lossless
Продолжительность: 49:56
Трэклист:
01 No Compromise
02 On The Run
03 Hackerstate
04 No Compromise - v. 02
05 Hackerstate (Dos Attack Remix By SITD)
06 No Compromise (Remix By Blockhead)
07 The Last Mile (Non Structure Remix By Cycloon)
08 Hackerstate (Firewall Remix By Framework)
09 No Compromise (A.Kleeberg Remix)
10 Hackerstate (Stolen Dream Remix By Object)
Код:
Exact Audio Copy V0.99 prebeta 1 from 25. May 2007
Отчёт EAC об извлечении, выполненном 9. июля 2008, 23:16
Sleepwalk / No Compromise
Дисковод: PIONEER DVD-RW  DVR-111D   Adapter: 0  ID: 0
Режим чтения                 : Достоверность
Использование точного потока : Да
Отключение кэша аудио        : Да
Использование указателей C2  : Нет
Коррекция смещения при чтении                 : 48
Способность читать области Lead-in и Lead-out : Нет
Заполнение пропущенных сэмплов тишиной        : Да
Удаление блоков с тишиной в начале и конце    : Нет
Интерфейс                                     : Встроенный Win32-интерфейс для Win NT/2000
Выходной формат          : Пользовательский кодировщик
Выбранный битрейт        : 1024 kBit/s
Качество                 : Высокий
Добавление ID3-тэга      : Нет
Утилита сжатия           : C:\Program Files\Exact Audio Copy\FLAC\FLAC.EXE
Дополнительные параметры : -8 -V -T "ARTIST=%a" -T "TITLE=%t" -T "ALBUM=%g" -T "DATE=%y" -T "TRACKNUMBER=%n" -T "GENRE=%m" -T "COMMENT=%e" %s -o %d
TOC извлечённого CD
     Трек |   Старт  | Длительность | Начальный сектор | Конечный сектор
    ---------------------------------------------------------------------
       1  |  0:00.00 |    4:31.69   |           0      |      20393
       2  |  4:31.69 |    5:37.74   |       20394      |      45742
       3  | 10:09.68 |    4:02.29   |       45743      |      63921
       4  | 14:12.22 |    3:51.71   |       63922      |      81317
       5  | 18:04.18 |    5:26.17   |       81318      |     105784
       6  | 23:30.35 |    5:24.03   |      105785      |     130087
       7  | 28:54.38 |    6:16.54   |      130088      |     158341
       8  | 35:11.17 |    4:02.48   |      158342      |     176539
       9  | 39:13.65 |    4:43.33   |      176540      |     197797
      10  | 43:57.23 |    5:58.68   |      197798      |     224715
Характеристики диапазона извлечения и сообщения об ошибках
Выбранный диапазон
     Имя файла D:\123\NEW UNREALESED\Sleepwalk - No Compromise [2003]\Sleepwalk - No Compromise.wav
     Пиковый уровень 96.6 %
     Качество диапазона 99.9 %
     CRC теста D0B6F787
     CRC копии D0B6F787
     Копирование... OK
Ошибок не произошло
Конец отчёта
Правила, инструкции, FAQ!!!
Торрент  Добавлен [26 июн 2020, 16:54] Скачать торрент Магнет ссылка
Скачать торрент
[ Размер 14.13 КБ / Просмотров 6 ]

Статус
Проверен 
 
Размер  345.34 МБ
Приватный: Нет (DHT включён)
.torrent скачан  0
 


     Отправить личное сообщение
   
Страница 1 из 1
Показать сообщения за:  Поле сортировки  
Начать новую тему Ответить на тему


Сейчас этот форум просматривают: нет зарегистрированных пользователей и гости: 0


Вы не можете начинать темы
Вы не можете отвечать на сообщения
Вы не можете редактировать свои сообщения
Вы не можете удалять свои сообщения
Вы не можете добавлять вложения

Перейти:  
cron