Начать новую тему Ответить на тему
Статистика раздачи
Размер: 358.19 МБ | Добавлен: 26 июн 2020, 17:26 | Скачали: 0
Сидеров: 0  [0 байт/сек]    Личеров: 0  [0 байт/сек]
Пред. тема | След. тема 

Автор
Сообщение

СообщениеДобавлено: 26 июн 2020, 17:26 

Ответить с цитатой 

Siva Six / Rise New Flesh
Жанр: EBM, Industrial
Страна-производитель диска: Italy
Год издания диска: 2005
Издатель (лейбл): Decadance Records Italy
Номер по каталогу: CD0110
Страна: Greece
Аудио кодек: FLAC (*.flac)
Тип рипа: tracks+.cue
Битрейт аудио: lossless
Продолжительность: 50:43
Источник (релизер): CD-R
Наличие сканов в содержимом раздачи: нет
Треклист:
1 Fire Walks With Me 6:03
2 Streetcleaner 4:59
3 In Extremis 4:56
4 Another Dead World 3:58
5 120 Days (In Slavery) 5:24
6 Awayk 5:13
7 Nihil Before Me 4:57
8 Deep Black Well 3:10
9 Nexus 6 5:32
10 Become Untrue 6:22
Код:
Exact Audio Copy V0.99 prebeta 5 from 4. May 2009
Отчёт EAC об извлечении, выполненном 25. сентября 2010, 15:34
Siva Six / Rise New Flesh
Дисковод: Optiarc DVD RW AD-7191S   Adapter: 0  ID: 0
Режим чтения                 : Достоверность
Использование точного потока : Да
Отключение кэша аудио        : Да
Использование указателей C2  : Нет
Коррекция смещения при чтении                     : 6
Способность читать области Lead-in и Lead-out     : Нет
Заполнение пропущенных сэмплов тишиной            : Да
Удаление блоков с тишиной в начале и конце        : Нет
При вычислениях CRC использовались нулевые сэмплы : Да
Интерфейс                                         : Встроенный Win32-интерфейс для Win NT/2000
Обработка зазоров                                 : Добавлено к предыдущему треку
Выходной формат          : Пользовательский кодировщик
Выбранный битрейт        : 1024 kBit/s
Качество                 : Высокий
Добавление ID3-тэга      : Нет
Утилита сжатия           : D:\Program Files\Exact Audio Copy\Flac\flac.exe
Дополнительные параметры : -8 -V -T "ARTIST=%a" -T "TITLE=%t" -T "ALBUM=%g" -T "DATE=%y" -T "TRACKNUMBER=%n" -T "GENRE=%m" -T "COMMENT=EAC FLAC -8" %s
TOC извлечённого CD
     Трек |   Старт  | Длительность | Начальный сектор | Конечный сектор
    ---------------------------------------------------------------------
       1  |  0:00.00 |    6:03.68   |           0      |      27292
       2  |  6:03.68 |    4:59.40   |       27293      |      49757
       3  | 11:03.33 |    4:56.58   |       49758      |      72015
       4  | 16:00.16 |    3:58.38   |       72016      |      89903
       5  | 19:58.54 |    5:24.40   |       89904      |     114243
       6  | 25:23.19 |    5:13.40   |      114244      |     137758
       7  | 30:36.59 |    4:57.74   |      137759      |     160107
       8  | 35:34.58 |    3:10.51   |      160108      |     174408
       9  | 38:45.34 |    5:32.60   |      174409      |     199368
      10  | 44:18.19 |    6:22.12   |      199369      |     228030
Трек  1
     Имя файла F:\TORRENT\Siva Six\tracks\01. Siva Six – Rise New Flesh.wav
     Длина предзазора  0:00:02.00
     Пиковый уровень 97.2 %
     Качество трека 99.9 %
     CRC теста 7EF2BCD0
     CRC копии 7EF2BCD0
     Трек не обнаружен в базе AccurateRip
     Копирование... OK
Трек  2
     Имя файла F:\TORRENT\Siva Six\tracks\02. Siva Six – Streetcleaner.wav
     Пиковый уровень 97.2 %
     Качество трека 99.9 %
     CRC теста DC2EC440
     CRC копии DC2EC440
     Трек не обнаружен в базе AccurateRip
     Копирование... OK
Трек  3
     Имя файла F:\TORRENT\Siva Six\tracks\03. Siva Six – In Extremis.wav
     Пиковый уровень 97.2 %
     Качество трека 100.0 %
     CRC теста A5E5AD79
     CRC копии A5E5AD79
     Трек не обнаружен в базе AccurateRip
     Копирование... OK
Трек  4
     Имя файла F:\TORRENT\Siva Six\tracks\04. Siva Six – Another Dead World.wav
     Пиковый уровень 97.2 %
     Качество трека 100.0 %
     CRC теста 1085D52A
     CRC копии 1085D52A
     Трек не обнаружен в базе AccurateRip
     Копирование... OK
Трек  5
     Имя файла F:\TORRENT\Siva Six\tracks\05. Siva Six – 120 Days (In Slavery).wav
     Пиковый уровень 97.2 %
     Качество трека 100.0 %
     CRC теста 90ABDE6E
     CRC копии 90ABDE6E
     Трек не обнаружен в базе AccurateRip
     Копирование... OK
Трек  6
     Имя файла F:\TORRENT\Siva Six\tracks\06. Siva Six – Awayk.wav
     Пиковый уровень 97.2 %
     Качество трека 100.0 %
     CRC теста 2EB4745A
     CRC копии 2EB4745A
     Трек не обнаружен в базе AccurateRip
     Копирование... OK
Трек  7
     Имя файла F:\TORRENT\Siva Six\tracks\07. Siva Six – Nihil Before Me.wav
     Пиковый уровень 97.2 %
     Качество трека 100.0 %
     CRC теста F91D6A07
     CRC копии F91D6A07
     Трек не обнаружен в базе AccurateRip
     Копирование... OK
Трек  8
     Имя файла F:\TORRENT\Siva Six\tracks\08. Siva Six – Deep Black Well.wav
     Пиковый уровень 76.6 %
     Качество трека 100.0 %
     CRC теста 9E34A090
     CRC копии 9E34A090
     Трек не обнаружен в базе AccurateRip
     Копирование... OK
Трек  9
     Имя файла F:\TORRENT\Siva Six\tracks\09. Siva Six – Nexus 6.wav
     Пиковый уровень 97.2 %
     Качество трека 100.0 %
     CRC теста 25F71BAD
     CRC копии 25F71BAD
     Трек не обнаружен в базе AccurateRip
     Копирование... OK
Трек 10
     Имя файла F:\TORRENT\Siva Six\tracks\10. Siva Six – Become Untrue.wav
     Пиковый уровень 97.2 %
     Качество трека 100.0 %
     CRC теста 323B0DA0
     CRC копии 323B0DA0
     Трек не обнаружен в базе AccurateRip
     Копирование... OK
Ни одного трека нет в базе AccurateRip
Ошибок не произошло
Конец отчёта
Код:
REM GENRE Industrial
REM DATE 2005
REM DISCID 7E0BE00A
REM COMMENT "ExactAudioCopy v0.99pb5"
PERFORMER "Siva Six"
TITLE "Rise New Flesh"
FILE "01. Siva Six – Rise New Flesh.wav" WAVE
  TRACK 01 AUDIO
    TITLE "Rise New Flesh"
    PERFORMER "Siva Six"
    INDEX 01 00:00:00
FILE "02. Siva Six – Streetcleaner.wav" WAVE
  TRACK 02 AUDIO
    TITLE "Streetcleaner"
    PERFORMER "Siva Six"
    INDEX 01 00:00:00
FILE "03. Siva Six – In Extremis.wav" WAVE
  TRACK 03 AUDIO
    TITLE "In Extremis"
    PERFORMER "Siva Six"
    INDEX 01 00:00:00
FILE "04. Siva Six – Another Dead World.wav" WAVE
  TRACK 04 AUDIO
    TITLE "Another Dead World"
    PERFORMER "Siva Six"
    INDEX 01 00:00:00
FILE "05. Siva Six – 120 Days (In Slavery).wav" WAVE
  TRACK 05 AUDIO
    TITLE "120 Days (In Slavery)"
    PERFORMER "Siva Six"
    INDEX 01 00:00:00
FILE "06. Siva Six – Awayk.wav" WAVE
  TRACK 06 AUDIO
    TITLE "Awayk"
    PERFORMER "Siva Six"
    INDEX 01 00:00:00
FILE "07. Siva Six – Nihil Before Me.wav" WAVE
  TRACK 07 AUDIO
    TITLE "Nihil Before Me"
    PERFORMER "Siva Six"
    INDEX 01 00:00:00
FILE "08. Siva Six – Deep Black Well.wav" WAVE
  TRACK 08 AUDIO
    TITLE "Deep Black Well"
    PERFORMER "Siva Six"
    INDEX 01 00:00:00
FILE "09. Siva Six – Nexus 6.wav" WAVE
  TRACK 09 AUDIO
    TITLE "Nexus 6"
    PERFORMER "Siva Six"
    INDEX 01 00:00:00
FILE "10. Siva Six – Become Untrue.wav" WAVE
  TRACK 10 AUDIO
    TITLE "Become Untrue"
    PERFORMER "Siva Six"
    INDEX 01 00:00:00
Код:
Started at: суббота, 25. 09. 2010. - 14:45.26
10 files found
01 -===- track 1 in drive Optiarc DVD RW AD-7191S
  Track ripped successfully
  Conclusion: this track is CDDA with probability 99%
  Tempfile successfully deleted.
02 -===- track 2 in drive Optiarc DVD RW AD-7191S
  Track ripped successfully
  Conclusion: this track is CDDA with probability 100%
  Tempfile successfully deleted.
03 -===- track 3 in drive Optiarc DVD RW AD-7191S
  Track ripped successfully
  Conclusion: this track is CDDA with probability 99%
  Tempfile successfully deleted.
04 -===- track 4 in drive Optiarc DVD RW AD-7191S
  Track ripped successfully
  Conclusion: this track is CDDA with probability 100%
  Tempfile successfully deleted.
05 -===- track 5 in drive Optiarc DVD RW AD-7191S
  Track ripped successfully
  Conclusion: this track is CDDA with probability 100%
  Tempfile successfully deleted.
06 -===- track 6 in drive Optiarc DVD RW AD-7191S
  Track ripped successfully
  Conclusion: this track is CDDA with probability 100%
  Tempfile successfully deleted.
07 -===- track 7 in drive Optiarc DVD RW AD-7191S
  Track ripped successfully
  Conclusion: this track is CDDA with probability 100%
  Tempfile successfully deleted.
08 -===- track 8 in drive Optiarc DVD RW AD-7191S
  Track ripped successfully
  Conclusion: this track is CDDA with probability 100%
  Tempfile successfully deleted.
09 -===- track 9 in drive Optiarc DVD RW AD-7191S
  Track ripped successfully
  Conclusion: this track is CDDA with probability 100%
  Tempfile successfully deleted.
10 -===- track 10 in drive Optiarc DVD RW AD-7191S
  Track ripped successfully
  Conclusion: this track is CDDA with probability 100%
  Tempfile successfully deleted.
Finished at: суббота, 25. 09. 2010. - 14:57.06 (operation time: 0:11.40)


Правила, инструкции, FAQ!!!
Торрент  Добавлен [26 июн 2020, 17:26] Скачать торрент Магнет ссылка
Скачать торрент
[ Размер 15.73 КБ / Просмотров 11 ]

Статус
Проверен 
 
Размер  358.19 МБ
Приватный: Нет (DHT включён)
.torrent скачан  0
 


     Отправить личное сообщение
   
Страница 1 из 1
Показать сообщения за:  Поле сортировки  
Начать новую тему Ответить на тему


Сейчас этот форум просматривают: нет зарегистрированных пользователей и гости: 0


Вы не можете начинать темы
Вы не можете отвечать на сообщения
Вы не можете редактировать свои сообщения
Вы не можете удалять свои сообщения
Вы не можете добавлять вложения

Перейти:  
cron