Начать новую тему Ответить на тему
Статистика раздачи
Размер: 394 МБ | Добавлен: 26 июн 2020, 17:27 | Скачали: 0
Сидеров: 0  [0 байт/сек]    Личеров: 0  [0 байт/сек]
Пред. тема | След. тема 

Автор
Сообщение

СообщениеДобавлено: 26 июн 2020, 17:27 

Ответить с цитатой 


Lossless Group представляет:
Sect
Telekinetic

Жанр: Industrial, EBM
Носитель: CD
Страна: Канада
Аудио кодек: FLAC
Тип рипа: image+.cue
Битрейт аудио: lossless
Метод рипа: EAC test+copy
Наличие сканов: Да
Источник (релизер): hexonut [Lossless Group, rutracker.org]. Все рипы с фирменных/оригинальных дисков из личной коллекции.
Лейбл: Third Mind Records / The All Blacks B.V.
Страна-производитель диска: США
Год издания диска: 1994
Номер по каталогу: TM 9033 2
WEKNOWWEARENOTALONE
Sect - 1994 - Telekinetic
01. Telepresence (06:00)
02. Andromeda Storm (05:12)
03. Phoenix (06:39)
04. Dream Circuit (06:37)
05. Immortal (05:01)
06. Neuronautics (04:36)
07. Flux (05:01)
08. M K Ultra (06:31)
09. Retrofit (05:01)
10. Missing In Orbit (05:40)
Продолжительность: 00:56:18
Код:
Exact Audio Copy V1.1 from 23. June 2015
EAC extraction logfile from 2. June 2016, 22:53
Sect / Telekinetic
Used drive  : PLEXTOR CD-R   PX-240A   Adapter: 0  ID: 0
Read mode               : Secure
Utilize accurate stream : Yes
Defeat audio cache      : Yes
Make use of C2 pointers : No
Read offset correction                      : 6
Overread into Lead-In and Lead-Out          : No
Fill up missing offset samples with silence : Yes
Delete leading and trailing silent blocks   : No
Null samples used in CRC calculations       : Yes
Used interface                              : Installed external ASPI interface
Used output format : Internal WAV Routines
Sample format      : 44.100 Hz; 16 Bit; Stereo
TOC of the extracted CD
     Track |   Start  |  Length  | Start sector | End sector
    ---------------------------------------------------------
        1  |  0:00.00 |  5:59.40 |         0    |    26964
        2  |  5:59.40 |  5:12.35 |     26965    |    50399
        3  | 11:12.00 |  6:38.62 |     50400    |    80311
        4  | 17:50.62 |  6:37.33 |     80312    |   110119
        5  | 24:28.20 |  5:01.25 |    110120    |   132719
        6  | 29:29.45 |  4:35.40 |    132720    |   153384
        7  | 34:05.10 |  5:02.00 |    153385    |   176034
        8  | 39:07.10 |  6:30.72 |    176035    |   205356
        9  | 45:38.07 |  5:00.00 |    205357    |   227856
       10  | 50:38.07 |  5:40.08 |    227857    |   253364
Range status and errors
Selected range
     Filename Z:\data\hexonut\Seeding\Sect-1994-Telekinetic\Telekinetic.wav
     Peak level 100.0 %
     Extraction speed 8.8 X
     Range quality 100.0 %
     Test CRC 648F6D63
     Copy CRC 648F6D63
     Copy OK
No errors occurred
AccurateRip summary
Track  1  accurately ripped (confidence 2)  [39D9E6A9]  (AR v2)
Track  2  accurately ripped (confidence 2)  [1423EDF1]  (AR v2)
Track  3  accurately ripped (confidence 2)  [9B1E32EC]  (AR v2)
Track  4  accurately ripped (confidence 2)  [4D737E7F]  (AR v2)
Track  5  accurately ripped (confidence 2)  [8E8083FD]  (AR v2)
Track  6  accurately ripped (confidence 2)  [8A8358CF]  (AR v2)
Track  7  cannot be verified as accurate (confidence 6)  [24D178E5], AccurateRip returned [88BF038B]  (AR v2)
Track  8  accurately ripped (confidence 2)  [039618E1]  (AR v2)
Track  9  accurately ripped (confidence 2)  [65009DBD]  (AR v2)
Track 10  accurately ripped (confidence 2)  [B82015D0]  (AR v2)
 9 track(s) accurately ripped
 1 track(s) could not be verified as accurate
Some tracks could not be verified as accurate
End of status report
==== Log checksum 1D2EF6A880ECF0B978E994C50D1ECABD6E0D4719BBFEEF614D5D36ABC63B5B95 ====
Правила, инструкции, FAQ!!!
Торрент  Добавлен [26 июн 2020, 17:27] Скачать торрент Магнет ссылка
Скачать торрент
[ Размер 124.07 КБ / Просмотров 6 ]

Статус
Проверен 
 
Размер  394 МБ
Приватный: Нет (DHT включён)
.torrent скачан  0
 


     Отправить личное сообщение
   
Страница 1 из 1
Показать сообщения за:  Поле сортировки  
Начать новую тему Ответить на тему


Сейчас этот форум просматривают: нет зарегистрированных пользователей и гости: 0


Вы не можете начинать темы
Вы не можете отвечать на сообщения
Вы не можете редактировать свои сообщения
Вы не можете удалять свои сообщения
Вы не можете добавлять вложения

Перейти:  
cron