Начать новую тему Ответить на тему
Статистика раздачи
Размер: 4.6 ГБ | Добавлен: 26 июн 2020, 20:43 | Скачали: 0
Сидеров: 0  [0 байт/сек]    Личеров: 0  [0 байт/сек]
Пред. тема | След. тема 

Автор
Сообщение

СообщениеДобавлено: 26 июн 2020, 20:43 

Ответить с цитатой 

Regenerator - Discography (not full)
Жанр: EBM industrial
Год выпуска диска: 1993-2005
Аудио кодек: FLAC
Тип рипа: image+.cue
Битрейт аудио: lossless
#777Жанр: EBM industrial
Год выпуска диска: 1993
Производитель диска: (Hyperium Records, Germany)
Аудио кодек: FLAC
Тип рипа: image+.cue
Битрейт аудио: lossless
Продолжительность: 46:47.25
Трэклист:
1. Existence [4:00]
2. System Of Conspiracy [6:00]
3. Strapped [5:24]
4. Current Flow [5:29]
5. Transformer [5:48]
6. Testify [3:54]
7. Tomorrow [6:05]
8. Everyone Follow [4:19]
9. Alpha Omega Man [5:48]
Код:
Exact Audio Copy V0.99 prebeta 4 from 23. January 2008
Отчёт EAC об извлечении, выполненном 2. апреля 2009, 10:55
Regenerator / Regenerator
Дисковод: Optiarc DVD RW AD-7170A   Adapter: 0  ID: 0
Режим чтения                 : Достоверность
Использование точного потока : Да
Отключение кэша аудио        : Да
Использование указателей C2  : Нет
Коррекция смещения при чтении                     : 48
Способность читать области Lead-in и Lead-out     : Нет
Заполнение пропущенных сэмплов тишиной            : Да
Удаление блоков с тишиной в начале и конце        : Нет
При вычислениях CRC использовались нулевые сэмплы : Да
Интерфейс                                         : Встроенный Win32-интерфейс для Win NT/2000
Выходной формат          : Пользовательский кодировщик
Выбранный битрейт        : 1024 kBit/s
Качество                 : Высокий
Добавление ID3-тэга      : Нет
Утилита сжатия           : C:\Program Files\Exact Audio Copy\FLAC\FLAC.EXE
Дополнительные параметры : -6 -V -T "ARTIST=%a" -T "TITLE=%t" -T "ALBUM=%g" -T "DATE=%y" -T "TRACKNUMBER=%n" -T "GENRE=%m" -T "COMMENT=%e" %s -o %d
TOC извлечённого CD
     Трек |   Старт  | Длительность | Начальный сектор | Конечный сектор
    ---------------------------------------------------------------------
       1  |  0:00.00 |    3:59.47   |           0      |      17971
       2  |  3:59.47 |    6:00.28   |       17972      |      44999
       3  | 10:00.00 |    5:23.40   |       45000      |      69264
       4  | 15:23.40 |    5:29.02   |       69265      |      93941
       5  | 20:52.42 |    5:47.58   |       93942      |     120024
       6  | 26:40.25 |    3:54.35   |      120025      |     137609
       7  | 30:34.60 |    6:05.12   |      137610      |     164996
       8  | 36:39.72 |    4:18.68   |      164997      |     184414
       9  | 40:58.65 |    5:48.35   |      184415      |     210549
Характеристики диапазона извлечения и сообщения об ошибках
Выбранный диапазон
     Имя файла D:\Мои документы\Regenerator - Regenerator.wav
     Пиковый уровень 98.0 %
     Качество диапазона 100.0 %
     CRC теста F4BD4CED
     CRC копии F4BD4CED
     Копирование... OK
Ошибок не произошло
Конец отчёта
#777Жанр: EBM industrial
Год выпуска диска: 1994
Производитель диска: (Hyperium Records, Germany)
Аудио кодек: FLAC
Тип рипа: image+.cue
Битрейт аудио: lossless
Продолжительность: 20:34.47
Трэклист:
1. Everyone Follow (Orgazmix) [3:44]
2. Everyone Follow (Dreamix) [7:41]
3. Everyone Follow (Spazmix) [4:53]
4. Everyone Follow (Albumix) [4:17]
Код:
Exact Audio Copy V0.99 prebeta 4 from 23. January 2008
Отчёт EAC об извлечении, выполненном 20. октября 2009, 22:03
Regenerator / Everyone Follow [Single]
Дисковод: Optiarc DVD RW AD-7173A   Adapter: 0  ID: 0
Режим чтения                 : Достоверность
Использование точного потока : Да
Отключение кэша аудио        : Да
Использование указателей C2  : Нет
Коррекция смещения при чтении                     : 48
Способность читать области Lead-in и Lead-out     : Нет
Заполнение пропущенных сэмплов тишиной            : Да
Удаление блоков с тишиной в начале и конце        : Нет
При вычислениях CRC использовались нулевые сэмплы : Да
Интерфейс                                         : Встроенный Win32-интерфейс для Win NT/2000
Выходной формат          : Пользовательский кодировщик
Выбранный битрейт        : 1024 kBit/s
Качество                 : Высокий
Добавление ID3-тэга      : Нет
Утилита сжатия           : C:\Program Files\Exact Audio Copy\Flac\flac.exe
Дополнительные параметры : -6 -V -T "ARTIST=%a" -T "TITLE=%t" -T "ALBUM=%g" -T "DATE=%y" -T "TRACKNUMBER=%n" -T "GENRE=%m" -T "COMMENT=%e" %s -o %d
TOC извлечённого CD
     Трек |   Старт  | Длительность | Начальный сектор | Конечный сектор
    ---------------------------------------------------------------------
       1  |  0:00.00 |    3:43.45   |           0      |      16769
       2  |  3:43.45 |    7:40.50   |       16770      |      51319
       3  | 11:24.20 |    4:53.20   |       51320      |      73314
       4  | 16:17.40 |    4:17.07   |       73315      |      92596
Характеристики диапазона извлечения и сообщения об ошибках
Выбранный диапазон
     Имя файла H:\СКАЧКА\FLAC\Regenerator 1993-2005\Regenerator - Everyone Follow.wav
     Пиковый уровень 100.0 %
     Качество диапазона 99.9 %
     CRC теста 3121C4FF
     CRC копии 3121C4FF
     Копирование... OK
Ошибок не произошло
AccurateRip: сводка
Трек  1  нет в базе данных
Трек  2  нет в базе данных
Трек  3  нет в базе данных
Трек  4  нет в базе данных
Ни одного трека нет в базе AccurateRip
Конец отчёта
#777Жанр: EBM industrial
Год выпуска диска: 1995
Производитель диска: (Hypnobeat Records, Germany)
Аудио кодек: FLAC
Тип рипа: image+.cue
Битрейт аудио: lossless
Продолжительность: 57:35.16
Трэклист:
01. Omnience [3:34]
02. Sacrilege [3:18]
03. Vision [3:23]
04. Zero Zone [5:45]
05. Today [4:22]
06. Archetype [5:21]
07. Circuit Seven [4:13]
08. You And I [5:57]
09. Lifeblood [6:23]
10. Love Over Will [5:31]
11. Tongue [4:01]
12. The Most Beautiful Angel [5:48]
Код:
Exact Audio Copy V0.99 prebeta 4 from 23. January 2008
Отчёт EAC об извлечении, выполненном 2. апреля 2009, 14:41
Regenerator / 2.0
Дисковод: Optiarc DVD RW AD-7170A   Adapter: 0  ID: 0
Режим чтения                 : Достоверность
Использование точного потока : Да
Отключение кэша аудио        : Да
Использование указателей C2  : Нет
Коррекция смещения при чтении                     : 48
Способность читать области Lead-in и Lead-out     : Нет
Заполнение пропущенных сэмплов тишиной            : Да
Удаление блоков с тишиной в начале и конце        : Нет
При вычислениях CRC использовались нулевые сэмплы : Да
Интерфейс                                         : Встроенный Win32-интерфейс для Win NT/2000
Выходной формат          : Пользовательский кодировщик
Выбранный битрейт        : 1024 kBit/s
Качество                 : Высокий
Добавление ID3-тэга      : Нет
Утилита сжатия           : C:\Program Files\Exact Audio Copy\FLAC\FLAC.EXE
Дополнительные параметры : -6 -V -T "ARTIST=%a" -T "TITLE=%t" -T "ALBUM=%g" -T "DATE=%y" -T "TRACKNUMBER=%n" -T "GENRE=%m" -T "COMMENT=%e" %s -o %d
TOC извлечённого CD
     Трек |   Старт  | Длительность | Начальный сектор | Конечный сектор
    ---------------------------------------------------------------------
       1  |  0:00.30 |    3:33.60   |          30      |      16064
       2  |  3:34.15 |    3:17.51   |       16065      |      30890
       3  |  6:51.66 |    3:22.54   |       30891      |      46094
       4  | 10:14.45 |    5:45.02   |       46095      |      71971
       5  | 15:59.47 |    4:21.54   |       71972      |      91600
       6  | 20:21.26 |    5:20.50   |       91601      |     115650
       7  | 25:42.01 |    4:13.10   |      115651      |     134635
       8  | 29:55.11 |    5:56.65   |      134636      |     161400
       9  | 35:52.01 |    6:22.71   |      161401      |     190121
      10  | 42:14.72 |    5:31.32   |      190122      |     214978
      11  | 47:46.29 |    4:00.61   |      214979      |     233039
      12  | 51:47.15 |    5:48.31   |      233040      |     259170
Характеристики диапазона извлечения и сообщения об ошибках
Выбранный диапазон
     Имя файла D:\Мои документы\Regenerator - 2.0.wav
     Пиковый уровень 100.0 %
     Качество диапазона 99.9 %
     CRC теста 019FD328
     CRC копии 019FD328
     Копирование... OK
Ошибок не произошло
Конец отчёта
#777Жанр: EBM industrial
Год выпуска диска: 1995
Производитель диска: (Hypnobeat Records, Germany)
Аудио кодек: FLAC
Тип рипа: image+.cue
Битрейт аудио: lossless
Продолжительность: 20:36.39
Трэклист:
1. The Archetype (The Counterfeit mix) [4:37]
2. The Archetype (The Tribulation mix) [5:21]
3. The Archetype (The Repentance mix) [4:31]
4. The Archetype (The Deliverance mix) [6:07]
Код:
Exact Audio Copy V0.99 prebeta 4 from 23. January 2008
Отчёт EAC об извлечении, выполненном 2. апреля 2009, 9:44
Regenerator / The Archetype [Single]
Дисковод: Optiarc DVD RW AD-7170A   Adapter: 0  ID: 0
Режим чтения                 : Достоверность
Использование точного потока : Да
Отключение кэша аудио        : Да
Использование указателей C2  : Нет
Коррекция смещения при чтении                     : 48
Способность читать области Lead-in и Lead-out     : Нет
Заполнение пропущенных сэмплов тишиной            : Да
Удаление блоков с тишиной в начале и конце        : Нет
При вычислениях CRC использовались нулевые сэмплы : Да
Интерфейс                                         : Встроенный Win32-интерфейс для Win NT/2000
Выходной формат          : Пользовательский кодировщик
Выбранный битрейт        : 1024 kBit/s
Качество                 : Высокий
Добавление ID3-тэга      : Нет
Утилита сжатия           : C:\Program Files\Exact Audio Copy\FLAC\FLAC.EXE
Дополнительные параметры : -6 -V -T "ARTIST=%a" -T "TITLE=%t" -T "ALBUM=%g" -T "DATE=%y" -T "TRACKNUMBER=%n" -T "GENRE=%m" -T "COMMENT=%e" %s -o %d
TOC извлечённого CD
     Трек |   Старт  | Длительность | Начальный сектор | Конечный сектор
    ---------------------------------------------------------------------
       1  |  0:00.30 |    4:36.42   |          30      |      20771
       2  |  4:36.72 |    5:21.15   |       20772      |      44861
       3  |  9:58.12 |    4:31.21   |       44862      |      65207
       4  | 14:29.33 |    6:07.36   |       65208      |      92768
Характеристики диапазона извлечения и сообщения об ошибках
Выбранный диапазон
     Имя файла D:\Мои документы\Regenerator - The Archetype [Single].wav
     Пиковый уровень 100.0 %
     Качество диапазона 99.9 %
     CRC теста C91418F7
     CRC копии C91418F7
     Копирование... OK
Ошибок не произошло
Конец отчёта
#777Жанр: EBM industrial
Год выпуска диска: 1997
Производитель диска: (Synthetic Symphony, Germany)
Аудио кодек: FLAC
Тип рипа: image+.cue
Битрейт аудио: lossless
Продолжительность: 1:09:09.18
Трэклист:
01. One Chance [6:09]
02. Megawhore [3:55]
03. Pitfall [3:53]
04. Rush [3:27]
05. H [5:46]
06. Lightbringer [4:26]
07. Seventh Seal [3:36]
08. Wirklichkeit [3:49]
09. Flesh vs Steel [5:29]
10. Mind Control [3:39]
11. Tumor [3:53]
12. Somewhere [4:26]
13. Hypereal [3:21]
14. Night And Mourning [6:16]
15. Grace [3:22]
16. Communion [3:43]
Код:
Exact Audio Copy V0.99 prebeta 4 from 23. January 2008
Отчёт EAC об извлечении, выполненном 2. апреля 2009, 11:58
Regenerator / Soulseeker
Дисковод: Optiarc DVD RW AD-7170A   Adapter: 0  ID: 0
Режим чтения                 : Достоверность
Использование точного потока : Да
Отключение кэша аудио        : Да
Использование указателей C2  : Нет
Коррекция смещения при чтении                     : 48
Способность читать области Lead-in и Lead-out     : Нет
Заполнение пропущенных сэмплов тишиной            : Да
Удаление блоков с тишиной в начале и конце        : Нет
При вычислениях CRC использовались нулевые сэмплы : Да
Интерфейс                                         : Встроенный Win32-интерфейс для Win NT/2000
Выходной формат          : Пользовательский кодировщик
Выбранный битрейт        : 1024 kBit/s
Качество                 : Высокий
Добавление ID3-тэга      : Нет
Утилита сжатия           : C:\Program Files\Exact Audio Copy\FLAC\FLAC.EXE
Дополнительные параметры : -6 -V -T "ARTIST=%a" -T "TITLE=%t" -T "ALBUM=%g" -T "DATE=%y" -T "TRACKNUMBER=%n" -T "GENRE=%m" -T "COMMENT=%e" %s -o %d
TOC извлечённого CD
     Трек |   Старт  | Длительность | Начальный сектор | Конечный сектор
    ---------------------------------------------------------------------
       1  |  0:00.32 |    6:09.18   |          32      |      27724
       2  |  6:09.50 |    3:54.42   |       27725      |      45316
       3  | 10:04.17 |    3:52.68   |       45317      |      62784
       4  | 13:57.10 |    3:27.27   |       62785      |      78336
       5  | 17:24.37 |    5:46.18   |       78337      |     104304
       6  | 23:10.55 |    4:26.37   |      104305      |     124291
       7  | 27:37.17 |    3:36.20   |      124292      |     140511
       8  | 31:13.37 |    3:48.38   |      140512      |     157649
       9  | 35:02.00 |    5:28.52   |      157650      |     182301
      10  | 40:30.52 |    3:38.40   |      182302      |     198691
      11  | 44:09.17 |    3:52.58   |      198692      |     216149
      12  | 48:02.00 |    4:25.45   |      216150      |     236069
      13  | 52:27.45 |    3:20.47   |      236070      |     251116
      14  | 55:48.17 |    6:16.03   |      251117      |     279319
      15  | 62:04.20 |    3:22.32   |      279320      |     294501
      16  | 65:26.52 |    3:42.73   |      294502      |     311224
Характеристики диапазона извлечения и сообщения об ошибках
Выбранный диапазон
     Имя файла D:\Мои документы\Regenerator - Soulseeker.wav
     Пиковый уровень 99.0 %
     Качество диапазона 100.0 %
     CRC теста EAE0084C
     CRC копии EAE0084C
     Копирование... OK
Ошибок не произошло
Конец отчёта
#777Жанр: EBM industrial
Год выпуска диска: 1999
Производитель диска: (Flaming Fish Music, USA)
Аудио кодек: FLAC
Тип рипа: image+.cue
Битрейт аудио: lossless
Продолжительность: 54:09.43
Трэклист:
01. Intruder [4:19]
02. Drug [4:17]
03. Sever [4:01]
04. Work [4:09]
05. The Crucible Of Love [3:34]
06. Uber De Maschine [4:37]
07. Backwards [3:20]
08. Horn Of David [3:46]
09. Cursher [5:19]
10. Excision [6:34]
11. Behind The Curtain [3:11]
12. The Dream Of Eternal Peace [7:02]
Код:
Exact Audio Copy V0.99 prebeta 4 from 23. January 2008
Отчёт EAC об извлечении, выполненном 21. июля 2009, 12:54
Regenerator / Debugged
Дисковод: Optiarc DVD RW AD-7173A   Adapter: 0  ID: 0
Режим чтения                 : Достоверность
Использование точного потока : Да
Отключение кэша аудио        : Да
Использование указателей C2  : Нет
Коррекция смещения при чтении                     : 48
Способность читать области Lead-in и Lead-out     : Нет
Заполнение пропущенных сэмплов тишиной            : Да
Удаление блоков с тишиной в начале и конце        : Нет
При вычислениях CRC использовались нулевые сэмплы : Да
Интерфейс                                         : Встроенный Win32-интерфейс для Win NT/2000
Выходной формат          : Пользовательский кодировщик
Выбранный битрейт        : 1024 kBit/s
Качество                 : Высокий
Добавление ID3-тэга      : Нет
Утилита сжатия           : C:\Program Files\Exact Audio Copy\Flac\flac.exe
Дополнительные параметры : -V -6 -T "artist=%a" -T "title=%t" -T "album=%g" -T "date=%y" -T "tracknumber=%n" -T "genre=%m" %s
TOC извлечённого CD
     Трек |   Старт  | Длительность | Начальный сектор | Конечный сектор
    ---------------------------------------------------------------------
       1  |  0:00.00 |    4:19.37   |           0      |      19461
       2  |  4:19.37 |    4:17.09   |       19462      |      38745
       3  |  8:36.46 |    4:00.66   |       38746      |      56811
       4  | 12:37.37 |    4:08.47   |       56812      |      75458
       5  | 16:46.09 |    3:33.48   |       75459      |      91481
       6  | 20:19.57 |    4:37.37   |       91482      |     112293
       7  | 24:57.19 |    3:20.00   |      112294      |     127293
       8  | 28:17.19 |    3:45.48   |      127294      |     144216
       9  | 32:02.67 |    5:19.12   |      144217      |     168153
      10  | 37:22.04 |    6:34.29   |      168154      |     197732
      11  | 43:56.33 |    3:10.67   |      197733      |     212049
      12  | 47:07.25 |    7:02.18   |      212050      |     243717
Характеристики диапазона извлечения и сообщения об ошибках
Выбранный диапазон
     Имя файла E:\torrent2\Regenerator - Debugged.wav
     Пиковый уровень 96.6 %
     Качество диапазона 99.9 %
     CRC теста C65A09ED
     CRC копии C65A09ED
     Копирование... OK
Ошибок не произошло
AccurateRip: сводка
Трек  1  точное извлечение (доверие 1)  [04C59FC0]
Трек  2  точное извлечение (доверие 1)  [7F232CDD]
Трек  3  точное извлечение (доверие 1)  [65A87806]
Трек  4  точное извлечение (доверие 1)  [B3BA51A5]
Трек  5  точное извлечение (доверие 1)  [8EA234DD]
Трек  6  точное извлечение (доверие 1)  [88FE6B14]
Трек  7  точное извлечение (доверие 1)  [3710D319]
Трек  8  точное извлечение (доверие 1)  [5C39465D]
Трек  9  точное извлечение (доверие 1)  [433A52A3]
Трек 10  точное извлечение (доверие 1)  [7EA8F30D]
Трек 11  точное извлечение (доверие 1)  [175F2469]
Трек 12  точное извлечение (доверие 1)  [58002F78]
Все треки извлечены точно
Конец отчёта
#777Жанр: EBM industrial
Год выпуска диска: 2001
Производитель диска: (Alfa Matrix, Belgium)
Аудио кодек: FLAC
Тип рипа: image+.cue
Битрейт аудио: lossless
Продолжительность Disc1: 1:14:12.17
Продолжительность Disc2: 39:01.25
Трэклист:
Disc1
01. War [4:35]
02. Battleground [5:31]
03. Shores Of Forever (E.U. Version) [5:36]
04. God Is On My Side [5:42]
05. Take Me (E.U. Version) [4:30]
06. Faith [5:06]
07. Blink [5:52]
08. This World [6:02]
09. Bombs Away [5:06]
10. Nowhere [4:34]
11. Wasteland (E.U. Version) [6:20]
12. Colours [5:06]
13. Love My Way (E.U. Version) [4:57]
14. War (Club mix) [5:07]
15. A Moment Of Silence [0:08]
Disc2
1. Shores Of Forever (Eternal Peace mix by Aiboforcen) [5:32]
2. Bombs Away (Bunker Buster mix by Mach) [5:43]
3. God Is On My Side (Radio Active mix by Dust Of Basement) [4:13]
4. Shores Of Forever (Ravolution mix by Neikka RPM) [5:00]
5. Take Me (Take Noir mix by Technoir) [4:16]
6. God Is On My Side (Neu Clear mix by Distorted Reality) [3:36]
7. Shores Of Forever (Prime Ordeal mix by Regenerator) [4:22]
8. M.I.A. (Missle In Action mix by Mach) [6:19]
Код:
Exact Audio Copy V0.99 prebeta 4 from 23. January 2008
Отчёт EAC об извлечении, выполненном 20. июня 2009, 21:05
Regenerator / War
Дисковод: Optiarc DVD RW AD-7173A   Adapter: 0  ID: 0
Режим чтения                 : Достоверность
Использование точного потока : Да
Отключение кэша аудио        : Да
Использование указателей C2  : Нет
Коррекция смещения при чтении                     : 48
Способность читать области Lead-in и Lead-out     : Нет
Заполнение пропущенных сэмплов тишиной            : Да
Удаление блоков с тишиной в начале и конце        : Нет
При вычислениях CRC использовались нулевые сэмплы : Да
Интерфейс                                         : Встроенный Win32-интерфейс для Win NT/2000
Выходной формат          : Пользовательский кодировщик
Выбранный битрейт        : 1024 kBit/s
Качество                 : Высокий
Добавление ID3-тэга      : Нет
Утилита сжатия           : C:\Program Files\Exact Audio Copy\Flac\flac.exe
Дополнительные параметры : -6 -V -T "ARTIST=%a" -T "TITLE=%t" -T "ALBUM=%g" -T "DATE=%y" -T "TRACKNUMBER=%n" -T "GENRE=%m" -T "COMMENT=%e" %s -o %d
TOC извлечённого CD
     Трек |   Старт  | Длительность | Начальный сектор | Конечный сектор
    ---------------------------------------------------------------------
       1  |  0:00.00 |    4:34.39   |           0      |      20588
       2  |  4:34.39 |    5:30.58   |       20589      |      45396
       3  | 10:05.22 |    5:36.03   |       45397      |      70599
       4  | 15:41.25 |    5:42.16   |       70600      |      96265
       5  | 21:23.41 |    4:30.35   |       96266      |     116550
       6  | 25:54.01 |    5:06.25   |      116551      |     139525
       7  | 31:00.26 |    5:52.07   |      139526      |     165932
       8  | 36:52.33 |    6:02.02   |      165933      |     193084
       9  | 42:54.35 |    5:05.49   |      193085      |     216008
      10  | 48:00.09 |    4:34.03   |      216009      |     236561
      11  | 52:34.12 |    6:20.31   |      236562      |     265092
      12  | 58:54.43 |    5:06.18   |      265093      |     288060
      13  | 64:00.61 |    4:57.14   |      288061      |     310349
      14  | 68:58.00 |    5:06.45   |      310350      |     333344
      15  | 74:04.45 |    0:07.47   |      333345      |     333916
Характеристики диапазона извлечения и сообщения об ошибках
Выбранный диапазон
     Имя файла E:\torrent2\Regenerator - War.wav
     Пиковый уровень 96.6 %
     Качество диапазона 99.9 %
     CRC теста 50D00EF1
     CRC копии 50D00EF1
     Копирование... OK
Ошибок не произошло
AccurateRip: сводка
Трек  1  точное извлечение (доверие 2)  [A32797D5]
Трек  2  точное извлечение (доверие 2)  [8F9A1780]
Трек  3  точное извлечение (доверие 2)  [1C30508D]
Трек  4  точность не определена (достоверность 2)  [D54062B0], AccurateRip вернул [EF82A479]
Трек  5  точное извлечение (доверие 2)  [976D82D7]
Трек  6  точное извлечение (доверие 2)  [1BA6BAF9]
Трек  7  точное извлечение (доверие 2)  [2C9517D3]
Трек  8  точное извлечение (доверие 2)  [916B7319]
Трек  9  точное извлечение (доверие 2)  [FAB17124]
Трек 10  точное извлечение (доверие 2)  [19B1C333]
Трек 11  точное извлечение (доверие 2)  [F3E662E5]
Трек 12  точное извлечение (доверие 2)  [9147D93D]
Трек 13  точное извлечение (доверие 2)  [CD92A013]
Трек 14  точное извлечение (доверие 2)  [47CB1951]
Трек 15  нет в базе данных
13 трек(и) скопированы точно
 1 трек(и) не удалось проверить на точность
 1 трек(и) не содержатся в базе AccurateRip
Некоторые треки не прошли проверку на точность
Конец отчёта
Код:
Exact Audio Copy V0.99 prebeta 4 from 23. January 2008
Отчёт EAC об извлечении, выполненном 20. июня 2009, 21:30
Regenerator / War
Дисковод: Optiarc DVD RW AD-7173A   Adapter: 0  ID: 0
Режим чтения                 : Достоверность
Использование точного потока : Да
Отключение кэша аудио        : Да
Использование указателей C2  : Нет
Коррекция смещения при чтении                     : 48
Способность читать области Lead-in и Lead-out     : Нет
Заполнение пропущенных сэмплов тишиной            : Да
Удаление блоков с тишиной в начале и конце        : Нет
При вычислениях CRC использовались нулевые сэмплы : Да
Интерфейс                                         : Встроенный Win32-интерфейс для Win NT/2000
Выходной формат          : Пользовательский кодировщик
Выбранный битрейт        : 1024 kBit/s
Качество                 : Высокий
Добавление ID3-тэга      : Нет
Утилита сжатия           : C:\Program Files\Exact Audio Copy\Flac\flac.exe
Дополнительные параметры : -6 -V -T "ARTIST=%a" -T "TITLE=%t" -T "ALBUM=%g" -T "DATE=%y" -T "TRACKNUMBER=%n" -T "GENRE=%m" -T "COMMENT=%e" %s -o %d
TOC извлечённого CD
     Трек |   Старт  | Длительность | Начальный сектор | Конечный сектор
    ---------------------------------------------------------------------
       1  |  0:00.00 |    5:31.74   |           0      |      24898
       2  |  5:31.74 |    5:43.18   |       24899      |      50641
       3  | 11:15.17 |    4:13.32   |       50642      |      69648
       4  | 15:28.49 |    4:59.45   |       69649      |      92118
       5  | 20:28.19 |    4:16.30   |       92119      |     111348
       6  | 24:44.49 |    3:36.21   |      111349      |     127569
       7  | 28:20.70 |    4:21.42   |      127570      |     147186
       8  | 32:42.37 |    6:18.63   |      147187      |     175599
Характеристики диапазона извлечения и сообщения об ошибках
Выбранный диапазон
     Имя файла E:\torrent2\Regenerator - War.wav
     Пиковый уровень 96.6 %
     Качество диапазона 100.0 %
     CRC теста C2096B11
     CRC копии C2096B11
     Копирование... OK
Ошибок не произошло
AccurateRip: сводка
Трек  1  точность не определена (достоверность 1)  [15F09C63], AccurateRip вернул [A3A71093]
Трек  2  точность не определена (достоверность 1)  [F2EBA21D], AccurateRip вернул [97F8AFD5]
Трек  3  точность не определена (достоверность 1)  [F77A3CD9], AccurateRip вернул [2624E421]
Трек  4  точность не определена (достоверность 1)  [F3E30BE4], AccurateRip вернул [E5327074]
Трек  5  точность не определена (достоверность 1)  [5E8BFAF2], AccurateRip вернул [BAF61CC2]
Трек  6  точность не определена (достоверность 1)  [A381987B], AccurateRip вернул [90BE7BB3]
Трек  7  точность не определена (достоверность 1)  [C766E8DF], AccurateRip вернул [E4C96A17]
Трек  8  точность не определена (достоверность 1)  [E06AA4F9], AccurateRip вернул [F5EC5361]
Ни один трек не прошёл проверки на точность
В вашей базе может быть иной вариант штамповки диска
Конец отчёта
#777Жанр: EBM industrial
Год выпуска диска: 2003
Производитель диска: (Archetype Multimedia, USA)
Аудио кодек: FLAC
Тип рипа: image+.cue
Битрейт аудио: lossless
Продолжительность : 1:19:29.39
Трэклист:
01. Blink (Rave In Black mix by Razed In Black) [5:59]
02. Take Me (Aether mix by Assemblage 23) [4:30]
03. Everyone Follow (Orgazmix by Front 242) [3:46]
04. Faith (Faithful mix by Observe & Control) [5:57]
05. One Chance (Stephanie's Purification mix by Kotto) [5:51]
06. Archetype (Deliverance mix by Bigod 20) [6:06]
07. Lightbringer (Clandestiny mix by Clan Of Xymox) [4:40]
08. Organism (Neuphoric mix by Lights Of Euphoria) [5:09]
09. Shores of Forever (Hurricane mix by Epsilon Minus) [3:53]
10. God is On My Side (Radio Active mix by Dust Of Basement) [4:09]
11. Drug (Feel Good mix by Purr Machine) [5:27]
12. Wirklishkeit (Coldsweat mix by Vultures) [3:10]
13. Faith (Syn-Trade mix by SD6) [5:07]
14. One Chance (After Death mix by Collide) [5:12]
15. Archetype (Repentance mix by Attrition) [4:29]
16. Lightbringer (Enlightenment mix by Divider) [6:03]
Код:
Exact Audio Copy V0.99 prebeta 4 from 23. January 2008
Отчёт EAC об извлечении, выполненном 20. июня 2009, 12:08
Regenerator / RegeneratedX
Дисковод: Optiarc DVD RW AD-7173A   Adapter: 0  ID: 0
Режим чтения                 : Достоверность
Использование точного потока : Да
Отключение кэша аудио        : Да
Использование указателей C2  : Нет
Коррекция смещения при чтении                     : 48
Способность читать области Lead-in и Lead-out     : Нет
Заполнение пропущенных сэмплов тишиной            : Да
Удаление блоков с тишиной в начале и конце        : Нет
При вычислениях CRC использовались нулевые сэмплы : Да
Интерфейс                                         : Встроенный Win32-интерфейс для Win NT/2000
Выходной формат          : Пользовательский кодировщик
Выбранный битрейт        : 1024 kBit/s
Качество                 : Высокий
Добавление ID3-тэга      : Нет
Утилита сжатия           : C:\Program Files\Exact Audio Copy\Flac\flac.exe
Дополнительные параметры : -6 -V -T "ARTIST=%a" -T "TITLE=%t" -T "ALBUM=%g" -T "DATE=%y" -T "TRACKNUMBER=%n" -T "GENRE=%m" -T "COMMENT=%e" %s -o %d
TOC извлечённого CD
     Трек |   Старт  | Длительность | Начальный сектор | Конечный сектор
    ---------------------------------------------------------------------
       1  |  0:00.00 |    5:59.00   |           0      |      26924
       2  |  5:59.00 |    4:29.74   |       26925      |      47173
       3  | 10:28.74 |    3:46.26   |       47174      |      64149
       4  | 14:15.25 |    5:57.33   |       64150      |      90957
       5  | 20:12.58 |    5:51.30   |       90958      |     117312
       6  | 26:04.13 |    6:06.29   |      117313      |     144791
       7  | 32:10.42 |    4:40.27   |      144792      |     165818
       8  | 36:50.69 |    5:08.73   |      165819      |     188991
       9  | 41:59.67 |    3:53.16   |      188992      |     206482
      10  | 45:53.08 |    4:09.14   |      206483      |     225171
      11  | 50:02.22 |    5:26.55   |      225172      |     249676
      12  | 55:29.02 |    3:09.63   |      249677      |     263914
      13  | 58:38.65 |    5:06.56   |      263915      |     286920
      14  | 63:45.46 |    5:11.63   |      286921      |     310308
      15  | 68:57.34 |    4:29.22   |      310309      |     330505
      16  | 73:26.56 |    6:02.58   |      330506      |     357713
Характеристики диапазона извлечения и сообщения об ошибках
Выбранный диапазон
     Имя файла E:\torrent2\Regenerator - RegeneratedX.wav
     Пиковый уровень 100.0 %
     Качество диапазона 99.9 %
     CRC теста DBFBB717
     CRC копии DBFBB717
     Копирование... OK
Ошибок не произошло
AccurateRip: сводка
Трек  1  точное извлечение (доверие 2)  [7608F3D8]
Трек  2  точное извлечение (доверие 2)  [30B54202]
Трек  3  точное извлечение (доверие 2)  [7F8178B8]
Трек  4  точное извлечение (доверие 2)  [B28A7E5D]
Трек  5  точное извлечение (доверие 2)  [1653FB9B]
Трек  6  точное извлечение (доверие 2)  [5106484C]
Трек  7  точное извлечение (доверие 2)  [8E9517BD]
Трек  8  точное извлечение (доверие 2)  [04B61D93]
Трек  9  точное извлечение (доверие 2)  [76A32701]
Трек 10  точное извлечение (доверие 2)  [1B424811]
Трек 11  точное извлечение (доверие 2)  [7CFAC6E5]
Трек 12  точное извлечение (доверие 2)  [DB2193D2]
Трек 13  точное извлечение (доверие 2)  [94070A06]
Трек 14  точное извлечение (доверие 2)  [3F423FB1]
Трек 15  точное извлечение (доверие 2)  [491B4F2C]
Трек 16  нет в базе данных
15 трек(и) скопированы точно
 1 трек(и) не содержатся в базе AccurateRip
Некоторые треки не прошли проверку на точность
Конец отчёта
#777Жанр: EBM industrial
Год выпуска диска: 2005
Производитель диска: (Alfa Matrix, Belgium)
Аудио кодек: FLAC
Тип рипа: image+.cue
Битрейт аудио: lossless
Продолжительность Disc1: 1:05:54.38
Продолжительность Disc2: 59:47.19
Трэклист:
Disc1
01. Organism [6:07]
02. Apnea [5:35]
03. Airbourne [4:50]
04. Contagious [5:21]
05. Cauterize [5:08]
06. Disease [4:45]
07. Hope [5:25]
08. Fatale [4:12]
09. Cured [4:49]
10. Death [5:17]
11. End Of File [3:52]
12. The Grave [4:46]
13. Don't Fear The Reaper [5:49]
Disc2
01. Apnea (A-XL mix by Steril) [4:30]
02. Death (X7 mix by Sangrael) [4:00]
03. Desease (Conspiracy Of Silence mix by Konz Ov Zy / Koito) [5:13]
04. Apnea (Breathless mix by XP8) [5:02]
05. Death (Return To Emptiness mix by Neikka RPM) [4:14]
06. Desease (Y-Luk-0 mix) [4:00]
07. Airbourne (4.Dani mix by Winterstahl) [5:02]
08. Apnea (Observe & Control mix) [5:26]
09. Death (Digital Factor mix) [4:12]
10. Desease (Cold Inside mix by Divider) [6:09]
11. Apnea (As.Phyx.Ia mix by Derma-Tek) [5:26]
12. Death (Lukotyk Mutation) [6:34]
Код:
Exact Audio Copy V0.99 prebeta 4 from 23. January 2008
Отчёт EAC об извлечении, выполненном 17. марта 2009, 16:38
Regenerator / Disease
Дисковод: Optiarc DVD RW AD-7170A   Adapter: 0  ID: 0
Режим чтения                 : Достоверность
Использование точного потока : Да
Отключение кэша аудио        : Да
Использование указателей C2  : Нет
Коррекция смещения при чтении                     : 48
Способность читать области Lead-in и Lead-out     : Нет
Заполнение пропущенных сэмплов тишиной            : Да
Удаление блоков с тишиной в начале и конце        : Нет
При вычислениях CRC использовались нулевые сэмплы : Да
Интерфейс                                         : Встроенный Win32-интерфейс для Win NT/2000
Выходной формат          : Пользовательский кодировщик
Выбранный битрейт        : 1024 kBit/s
Качество                 : Высокий
Добавление ID3-тэга      : Нет
Утилита сжатия           : C:\Program Files\Exact Audio Copy\FLAC\FLAC.EXE
Дополнительные параметры : -6 -V -T "ARTIST=%a" -T "TITLE=%t" -T "ALBUM=%g" -T "DATE=%y" -T "TRACKNUMBER=%n" -T "GENRE=%m" -T "COMMENT=%e" %s -o %d
TOC извлечённого CD
     Трек |   Старт  | Длительность | Начальный сектор | Конечный сектор
    ---------------------------------------------------------------------
       1  |  0:00.00 |    6:07.20   |           0      |      27544
       2  |  6:07.20 |    5:34.55   |       27545      |      52649
       3  | 11:42.00 |    4:49.58   |       52650      |      74382
       4  | 16:31.58 |    5:20.74   |       74383      |      98456
       5  | 21:52.57 |    5:07.72   |       98457      |     121553
       6  | 27:00.54 |    4:44.49   |      121554      |     142902
       7  | 31:45.28 |    5:24.63   |      142903      |     167265
       8  | 37:10.16 |    4:11.57   |      167266      |     186147
       9  | 41:21.73 |    4:48.42   |      186148      |     207789
      10  | 46:10.40 |    5:17.09   |      207790      |     231573
      11  | 51:27.49 |    3:51.42   |      231574      |     248940
      12  | 55:19.16 |    4:46.17   |      248941      |     270407
      13  | 60:05.33 |    5:49.05   |      270408      |     296587
      14  | 68:26.38 |    7:27.63   |      307988      |     341575
Характеристики диапазона извлечения и сообщения об ошибках
Выбранный диапазон
     Имя файла D:\Мои документы\Regenerator - Disease.wav
     Пиковый уровень 96.6 %
     Качество диапазона 99.9 %
     CRC теста A3187A81
     CRC копии A3187A81
     Копирование... OK
Ошибок не произошло
Конец отчёта
Код:
Exact Audio Copy V0.99 prebeta 4 from 23. January 2008
Отчёт EAC об извлечении, выполненном 18. марта 2009, 10:39
Regenerator / Desease
Дисковод: Optiarc DVD RW AD-7170A   Adapter: 0  ID: 0
Режим чтения                 : Достоверность
Использование точного потока : Да
Отключение кэша аудио        : Да
Использование указателей C2  : Нет
Коррекция смещения при чтении                     : 48
Способность читать области Lead-in и Lead-out     : Нет
Заполнение пропущенных сэмплов тишиной            : Да
Удаление блоков с тишиной в начале и конце        : Нет
При вычислениях CRC использовались нулевые сэмплы : Да
Интерфейс                                         : Встроенный Win32-интерфейс для Win NT/2000
Выходной формат          : Пользовательский кодировщик
Выбранный битрейт        : 1024 kBit/s
Качество                 : Высокий
Добавление ID3-тэга      : Нет
Утилита сжатия           : C:\Program Files\Exact Audio Copy\FLAC\FLAC.EXE
Дополнительные параметры : -6 -V -T "ARTIST=%a" -T "TITLE=%t" -T "ALBUM=%g" -T "DATE=%y" -T "TRACKNUMBER=%n" -T "GENRE=%m" -T "COMMENT=%e" %s -o %d
TOC извлечённого CD
     Трек |   Старт  | Длительность | Начальный сектор | Конечный сектор
    ---------------------------------------------------------------------
       1  |  0:00.00 |    4:30.04   |           0      |      20253
       2  |  4:30.04 |    4:00.21   |       20254      |      38274
       3  |  8:30.25 |    5:12.71   |       38275      |      61745
       4  | 13:43.21 |    5:01.64   |       61746      |      84384
       5  | 18:45.10 |    4:13.60   |       84385      |     103419
       6  | 22:58.70 |    3:59.66   |      103420      |     121410
       7  | 26:58.61 |    5:02.09   |      121411      |     144069
       8  | 32:00.70 |    5:25.56   |      144070      |     168500
       9  | 37:26.51 |    4:12.13   |      168501      |     187413
      10  | 41:38.64 |    6:08.53   |      187414      |     215066
      11  | 47:47.42 |    5:25.41   |      215067      |     239482
      12  | 53:13.08 |    6:34.11   |      239483      |     269043
Характеристики диапазона извлечения и сообщения об ошибках
Выбранный диапазон
     Имя файла D:\Мои документы\Regenerator 2005-Disease [Limited Edition] (EBM synth pop) [flac] 1055438 (Alfa Matrix, Belgium)\Disc2\Regenerator - Desease.wav
     Пиковый уровень 100.0 %
     Качество диапазона 100.0 %
     CRC теста 95E706DC
     CRC копии 95E706DC
     Копирование... OK
Ошибок не произошло
Конец отчёта
Видео:
Разрешение: 352x240 (1.47:1)
Кадров в секунду: 29.970
Битрейт: 1152 kbps
Фактор качества: 0.47 b/px
Кодек: MPEG 1
Аудио:
Количество каналов: 2
Частота дискредитации: 44100 Hz
Битрейт: 160 kbps
Кодек: MPEG 1 Layer 2

#777Жанр: EBM industrial
Год выпуска диска: 2005
Производитель диска: (Alfa Matrix, Belgium)
Аудио кодек: FLAC
Тип рипа: image+.cue
Битрейт аудио: lossless
Продолжительность : 59:41.25
Трэклист:
01. Death [5:20]
02. Disease (Vengeance mix by Mach) [5:02]
03. Organism [6:08]
04. Death (Flat-lined mix by Fractured) [5:12]
05. Airbourne (Blaster mix by G. Wygonik Of Cut.Rate.Box) [5:29]
06. Death (Naked Monk mix by Cycletribe / Dorntec) [5:20]
07. Apnea (Trance mix by Dawn Of Ashes) [5:45]
08. Death (Neon Cage Experiment mix) [5:22]
09. Airbourne (Ewilking mix by Steril) [6:02]
10. Death (...On Arrival mix by The Eternal Afflict) [4:50]
11. Organism (Lights Of Euphoria mix) [5:11]
Код:
Exact Audio Copy V0.99 prebeta 5 from 4. May 2009
Отчёт EAC об извлечении, выполненном 28. сентября 2010, 7:50
Regenerator / Death [Single]
Дисковод: Optiarc DVD RW AD-7173A   Adapter: 0  ID: 0
Режим чтения                 : Достоверность
Использование точного потока : Да
Отключение кэша аудио        : Да
Использование указателей C2  : Нет
Коррекция смещения при чтении                     : 48
Способность читать области Lead-in и Lead-out     : Нет
Заполнение пропущенных сэмплов тишиной            : Да
Удаление блоков с тишиной в начале и конце        : Нет
При вычислениях CRC использовались нулевые сэмплы : Да
Интерфейс                                         : Установленный внешний ASPI-интерфейс
Выходной формат          : Пользовательский кодировщик
Выбранный битрейт        : 1024 kBit/s
Качество                 : Высокий
Добавление ID3-тэга      : Нет
Утилита сжатия           : C:\Program Files\Exact Audio Copy\flac.exe
Дополнительные параметры : -6 -V -T "ARTIST=%a" -T "TITLE=%t" -T "ALBUM=%g" -T "DATE=%y" -T "TRACKNUMBER=%n" -T "GENRE=%m" -T "COMMENT=%e" %s -o %d
TOC извлечённого CD
     Трек |   Старт  | Длительность | Начальный сектор | Конечный сектор
    ---------------------------------------------------------------------
       1  |  0:00.00 |    5:19.44   |           0      |      23968
       2  |  5:19.44 |    5:02.20   |       23969      |      46638
       3  | 10:21.64 |    6:08.36   |       46639      |      74274
       4  | 16:30.25 |    5:12.33   |       74275      |      97707
       5  | 21:42.58 |    5:29.09   |       97708      |     122391
       6  | 27:11.67 |    5:20.16   |      122392      |     146407
       7  | 32:32.08 |    5:44.54   |      146408      |     172261
       8  | 38:16.62 |    5:22.08   |      172262      |     196419
       9  | 43:38.70 |    6:02.08   |      196420      |     223577
      10  | 49:41.03 |    4:49.40   |      223578      |     245292
      11  | 54:30.43 |    5:10.57   |      245293      |     268599
Характеристики диапазона извлечения и сообщения об ошибках
Выбранный диапазон
     Имя файла H:\СКАЧКА\FLAC\1 TORRENT\Regenerator - Death [Single].wav
     Пиковый уровень 100.0 %
     Качество диапазона 99.9 %
     CRC теста 4A2DB2C3
     CRC копии 4A2DB2C3
     Копирование... OK
Ошибок не произошло
AccurateRip: сводка
Трек  1  нет в базе данных
Трек  2  нет в базе данных
Трек  3  нет в базе данных
Трек  4  нет в базе данных
Трек  5  нет в базе данных
Трек  6  нет в базе данных
Трек  7  нет в базе данных
Трек  8  нет в базе данных
Трек  9  нет в базе данных
Трек 10  нет в базе данных
Трек 11  нет в базе данных
Ни одного трека нет в базе AccurateRip
Конец отчёта
18.09.2012 - Торрент-файл обновлен. Добавлена ипиха 2005 года
Правила, инструкции, FAQ!!!
Торрент  Добавлен [26 июн 2020, 20:43] Скачать торрент Магнет ссылка
Скачать торрент
[ Размер 36.28 КБ / Просмотров 6 ]

Статус
Проверен 
 
Размер  4.6 ГБ
Приватный: Нет (DHT включён)
.torrent скачан  0
 


     Отправить личное сообщение
   
Страница 1 из 1
Показать сообщения за:  Поле сортировки  
Начать новую тему Ответить на тему


Сейчас этот форум просматривают: нет зарегистрированных пользователей и гости: 0


Вы не можете начинать темы
Вы не можете отвечать на сообщения
Вы не можете редактировать свои сообщения
Вы не можете удалять свои сообщения
Вы не можете добавлять вложения

Перейти:  
cron