Начать новую тему Ответить на тему
Статистика раздачи
Размер: 522.33 МБ | Добавлен: 26 июн 2020, 20:15 | Скачали: 0
Сидеров: 0  [0 байт/сек]    Личеров: 0  [0 байт/сек]
Пред. тема | След. тема 

Автор
Сообщение

СообщениеДобавлено: 26 июн 2020, 20:15 

Ответить с цитатой 

Recently Deceased / Cellardoor
Жанр: EBM/ Industrial
Носитель: CD
Страна-производитель диска: Russia
Год издания: 2008
Издатель (лейбл): Art Music Group
Номер по каталогу: AMG-325
Страна: Russia
Аудиокодек: FLAC (*.flac)
Тип рипа: image+.cue
Битрейт аудио: lossless
Продолжительность: 1:00:16
Источник (релизер): Original CD
Наличие сканов в содержимом раздачи: да
Треклист:
1 Stitch Witch 5:02
2 Stay Vacuum 3:47
3 The Aim Is Here 4:57
4 Frontline Natures 4:15
5 Breathe Again 3:54
6 Every Little Song 4:21
7 Parabola Hominique 3:50
8 Please Increase 3:43
9 Hiding A Monster 3:55
10 Cellardoor 4:27
11 Every Little Song (:wumpscut: Remix) 3:42
12 Every Little Song (Yendri Remix) 5:16
13 The Aim Is Here (Shtrihcode Remix) 3:54
14 Every Little Song (Reznick Remix) 5:02
Код:
Exact Audio Copy V1.0 beta 3 from 29. August 2011
EAC extraction logfile from 20. July 2014, 11:18
Recently Deceased / Cellardoor
Used drive  : PIONEER DVD-RW  DVR-118L   Adapter: 0  ID: 0
Read mode               : Secure
Utilize accurate stream : Yes
Defeat audio cache      : Yes
Make use of C2 pointers : No
Read offset correction                      : 6
Overread into Lead-In and Lead-Out          : No
Fill up missing offset samples with silence : Yes
Delete leading and trailing silent blocks   : No
Null samples used in CRC calculations       : Yes
Used interface                              : Native Win32 interface for Win NT & 2000
Used output format              : User Defined Encoder
Selected bitrate                : 128 kBit/s
Quality                         : High
Add ID3 tag                     : No
Command line compressor         : C:\Program Files (x86)\FLAC\flac.exe
Additional command line options : -V -8 %source%
TOC of the extracted CD
     Track |   Start  |  Length  | Start sector | End sector
    ---------------------------------------------------------
        1  |  0:00.00 |  5:02.58 |         0    |    22707
        2  |  5:02.58 |  3:47.69 |     22708    |    39801
        3  |  8:50.52 |  4:57.55 |     39802    |    62131
        4  | 13:48.32 |  4:15.74 |     62132    |    81330
        5  | 18:04.31 |  3:54.69 |     81331    |    98949
        6  | 21:59.25 |  4:21.73 |     98950    |   118597
        7  | 26:21.23 |  3:50.67 |    118598    |   135914
        8  | 30:12.15 |  3:43.03 |    135915    |   152642
        9  | 33:55.18 |  3:55.55 |    152643    |   170322
       10  | 37:50.73 |  4:27.35 |    170323    |   190382
       11  | 42:18.33 |  3:42.47 |    190383    |   207079
       12  | 46:01.05 |  5:16.72 |    207080    |   230851
       13  | 51:18.02 |  3:54.56 |    230852    |   248457
       14  | 55:12.58 |  5:02.68 |    248458    |   271175
Range status and errors
Selected range
     Filename E:\Temp Documents\в плеер\Recently Deceased - Cellardoor.wav
     Peak level 99.8 %
     Extraction speed 4.8 X
     Range quality 100.0 %
     Test CRC 41E511F1
     Copy CRC 41E511F1
     Copy OK
No errors occurred
End of status report
==== Log checksum BB3B633503AC61BDB1E847CC60BB4AE8BAAF456EA40795E401687A6A8CB4F172 ====
Код:
REM GENRE "EBM/ Industrial"
REM DATE 2008
REM DISCID 9F0E1F0E
REM COMMENT "ExactAudioCopy v1.0b3"
PERFORMER "Recently Deceased"
TITLE "Cellardoor"
FILE "Recently Deceased - Cellardoor.flac" WAVE
  TRACK 01 AUDIO
    TITLE "Stitch Witch"
    PERFORMER "Recently Deceased"
    INDEX 01 00:00:00
  TRACK 02 AUDIO
    TITLE "Stay Vacuum"
    PERFORMER "Recently Deceased"
    INDEX 01 05:02:58
  TRACK 03 AUDIO
    TITLE "The Aim Is Here"
    PERFORMER "Recently Deceased"
    INDEX 01 08:50:52
  TRACK 04 AUDIO
    TITLE "Frontline Natures"
    PERFORMER "Recently Deceased"
    INDEX 01 13:48:32
  TRACK 05 AUDIO
    TITLE "Breathe Again"
    PERFORMER "Recently Deceased"
    INDEX 01 18:04:31
  TRACK 06 AUDIO
    TITLE "Every Little Song"
    PERFORMER "Recently Deceased"
    INDEX 01 21:59:25
  TRACK 07 AUDIO
    TITLE "Parabola Hominique"
    PERFORMER "Recently Deceased"
    INDEX 01 26:21:23
  TRACK 08 AUDIO
    TITLE "Please Increase"
    PERFORMER "Recently Deceased"
    INDEX 01 30:12:15
  TRACK 09 AUDIO
    TITLE "Hiding A Monster"
    PERFORMER "Recently Deceased"
    INDEX 01 33:55:18
  TRACK 10 AUDIO
    TITLE "Cellardoor"
    PERFORMER "Recently Deceased"
    INDEX 01 37:50:73
  TRACK 11 AUDIO
    TITLE "Every Little Song [:wumpscut: Remix]"
    PERFORMER "Recently Deceased"
    INDEX 01 42:18:33
  TRACK 12 AUDIO
    TITLE "Every Little Song [Yendri Remix]"
    PERFORMER "Recently Deceased"
    INDEX 01 46:01:05
  TRACK 13 AUDIO
    TITLE "The Aim Is Here [Shtrihcode Remix]"
    PERFORMER "Recently Deceased"
    INDEX 01 51:18:02
  TRACK 14 AUDIO
    TITLE "Every Little Song [Reznick Remix]"
    PERFORMER "Recently Deceased"
    INDEX 01 55:12:58
Правила, инструкции, FAQ!!!
Торрент  Добавлен [26 июн 2020, 20:15] Скачать торрент Магнет ссылка
Скачать торрент
[ Размер 11.41 КБ / Просмотров 8 ]

Статус
Проверен 
 
Размер  522.33 МБ
Приватный: Нет (DHT включён)
.torrent скачан  0
 


     Отправить личное сообщение
   
Страница 1 из 1
Показать сообщения за:  Поле сортировки  
Начать новую тему Ответить на тему


Сейчас этот форум просматривают: нет зарегистрированных пользователей и гости: 0


Вы не можете начинать темы
Вы не можете отвечать на сообщения
Вы не можете редактировать свои сообщения
Вы не можете удалять свои сообщения
Вы не можете добавлять вложения

Перейти:  
cron