Начать новую тему Ответить на тему
Статистика раздачи
Размер: 500.37 МБ | Добавлен: 26 июн 2020, 17:12 | Скачали: 0
Сидеров: 0  [0 байт/сек]    Личеров: 0  [0 байт/сек]
Пред. тема | След. тема 

Автор
Сообщение

СообщениеДобавлено: 26 июн 2020, 17:12 

Ответить с цитатой 

Pyrroline / Behind The Horizon
Жанр: EBM, Industrial
Страна-производитель диска: Germany
Год издания диска: 2010
Издатель (лейбл): Not On Label (Pyrroline Self-released)
Формат: CD, Album
Аудиокодек: FLAC (*.flac)
Тип рипа: image+.cue
Битрейт аудио: lossless
Продолжительность: 1:09:09.02
Источник (релизер): Физический носитель (Собственный рип с оригинала).
Наличие сканов в содержимом раздачи: да
Треклист:
01. EMP Fallout [5:19]
02. When Machines Get Souls [4:16]
03. My Dreams [4:50]
04. Cybernetic Civilization [5:15]
05. 1984 [4:20]
06. Prophesy [4:56]
07. When Angels Pass Away [4:50]
08. The Collective (Reassimilated) [5:16]
09. Afghanistan [5:15]
10. Tears Behind Freedom [5:40]
11. Drown [3:21]
12. Cureless [6:57]
13. Doomsday Clock (Bonus Track) [4:15]
14. Cybernetic Civilization (Molecular Acoustic RMX By MC1R)(Bonus Track) [4:39]
Код:
Exact Audio Copy V1.0 beta 3 from 29. August 2011
EAC extraction logfile from 21. November 2011, 22:56
Pyrroline / Behind The Horizon
Used drive  : PLEXTOR BDDVDR PX-B320SA   Adapter: 1  ID: 1
Read mode               : Secure
Utilize accurate stream : Yes
Defeat audio cache      : Yes
Make use of C2 pointers : No
Read offset correction                      : 6
Overread into Lead-In and Lead-Out          : No
Fill up missing offset samples with silence : Yes
Delete leading and trailing silent blocks   : No
Null samples used in CRC calculations       : Yes
Used interface                              : Native Win32 interface for Win NT & 2000
Used output format              : User Defined Encoder
Selected bitrate                : 128 kBit/s
Quality                         : High
Add ID3 tag                     : No
Command line compressor         : C:\Program Files\FLAC\flac.exe
Additional command line options : -V -8 -T "Date=%year%" -T "Genre=%genre%" %source%
TOC of the extracted CD
     Track |   Start  |  Length  | Start sector | End sector
    ---------------------------------------------------------
        1  |  0:00.00 |  5:19.00 |         0    |    23924
        2  |  5:19.00 |  4:15.65 |     23925    |    43114
        3  |  9:34.65 |  4:49.62 |     43115    |    64851
        4  | 14:24.52 |  5:14.73 |     64852    |    88474
        5  | 19:39.50 |  4:20.14 |     88475    |   107988
        6  | 23:59.64 |  4:56.00 |    107989    |   130188
        7  | 28:55.64 |  4:50.08 |    130189    |   151946
        8  | 33:45.72 |  5:16.09 |    151947    |   175655
        9  | 39:02.06 |  5:14.70 |    175656    |   199275
       10  | 44:17.01 |  5:40.06 |    199276    |   224781
       11  | 49:57.07 |  3:20.54 |    224782    |   239835
       12  | 53:17.61 |  6:57.22 |    239836    |   271132
       13  | 60:15.08 |  4:14.71 |    271133    |   290253
       14  | 64:30.04 |  4:38.73 |    290254    |   311176
Range status and errors
Selected range
     Filename D:\Pyrroline - Behind The Horizon (2010)\Pyrroline - Behind The Horizon.wav
     Peak level 95.1 %
     Extraction speed 7.8 X
     Range quality 99.9 %
     Test CRC 1BFB6648
     Copy CRC 1BFB6648
     Copy OK
No errors occurred
AccurateRip summary
Track  1  not present in database
Track  2  not present in database
Track  3  not present in database
Track  4  not present in database
Track  5  not present in database
Track  6  not present in database
Track  7  not present in database
Track  8  not present in database
Track  9  not present in database
Track 10  not present in database
Track 11  not present in database
Track 12  not present in database
Track 13  not present in database
Track 14  not present in database
None of the tracks are present in the AccurateRip database
End of status report
==== Log checksum 9B99BC465110F56D600E6B652E40B25AE408FA156F38FEE910080C5AC378F2B0 ====
Правила, инструкции, FAQ!!!
Торрент  Добавлен [26 июн 2020, 17:12] Скачать торрент Магнет ссылка
Скачать торрент
[ Размер 20.43 КБ / Просмотров 2 ]

Статус
Проверен 
 
Размер  500.37 МБ
Приватный: Нет (DHT включён)
.torrent скачан  0
 


     Отправить личное сообщение
   
Страница 1 из 1
Показать сообщения за:  Поле сортировки  
Начать новую тему Ответить на тему


Сейчас этот форум просматривают: нет зарегистрированных пользователей и гости: 0


Вы не можете начинать темы
Вы не можете отвечать на сообщения
Вы не можете редактировать свои сообщения
Вы не можете удалять свои сообщения
Вы не можете добавлять вложения

Перейти:  
cron