Начать новую тему Ответить на тему
Статистика раздачи
Размер: 363.88 МБ | Добавлен: 26 июн 2020, 17:20 | Скачали: 0
Сидеров: 0  [0 байт/сек]    Личеров: 0  [0 байт/сек]
Пред. тема | След. тема 

Автор
Сообщение

СообщениеДобавлено: 26 июн 2020, 17:20 

Ответить с цитатой 

Pygmy Children - Low Life Dream
Жанр: EBM, Industrial
Носитель: CD
Страна-производитель диска (релиза): Germany
Год издания: 1998
Издатель (лейбл): Out Of Line ‎
Номер по каталогу: OUT 023
Страна исполнителя (группы): USA
Аудиокодек: FLAC (*.flac)
Тип рипа: tracks+.cue
Битрейт аудио: lossless
Продолжительность: 54:11
Источник (релизер): интернет
Наличие сканов в содержимом раздачи: нет
Треклист:
01. Low Life (2:14)
02. Plastiq (5:30)
03. Melt (5:24)
04. This Familiar Device (5:20)
05. Halo Effect (5:02)
06. In The Details... (5:29)
07. Transit (5:15)
08. Drawing Blanks (5:21)
09. Parasite (5:47)
10. Saviour (5:03)
11. In The Details... (Edit) (3:46)
Код:
Exact Audio Copy V1.3 from 2. September 2016
EAC extraction logfile from 20. February 2017, 21:44
Pygmy Children / Low Life Dream
Used drive  : ASUS    DRW-24D5MT   Adapter: 1  ID: 0
Read mode               : Secure
Utilize accurate stream : Yes
Defeat audio cache      : Yes
Make use of C2 pointers : No
Read offset correction                      : 6
Overread into Lead-In and Lead-Out          : No
Fill up missing offset samples with silence : Yes
Delete leading and trailing silent blocks   : No
Null samples used in CRC calculations       : Yes
Used interface                              : Native Win32 interface for Win NT & 2000
Gap handling                                : Appended to previous track
Used output format              : User Defined Encoder
Selected bitrate                : 1024 kBit/s
Quality                         : High
Add ID3 tag                     : No
Command line compressor         : C:\Program Files\Exact Audio Copy\Flac\flac.exe
Additional command line options : -V -8 -T "GENRE=%genre%" -T "ARTIST=%artist%" -T "TITLE=%title%" -T "ALBUM=%albumtitle%" -T "DATE=%year%" -T "TRACKNUMBER=%tracknr%" -T "COMMENT=%comment%" %source%
TOC of the extracted CD
     Track |   Start  |  Length  | Start sector | End sector
    ---------------------------------------------------------
        1  |  0:00.00 |  2:14.09 |         0    |    10058
        2  |  2:14.09 |  5:30.12 |     10059    |    34820
        3  |  7:44.21 |  5:24.12 |     34821    |    59132
        4  | 13:08.33 |  5:20.43 |     59133    |    83175
        5  | 18:29.01 |  5:02.54 |     83176    |   105879
        6  | 23:31.55 |  5:29.06 |    105880    |   130560
        7  | 29:00.61 |  5:15.29 |    130561    |   154214
        8  | 34:16.15 |  5:21.24 |    154215    |   178313
        9  | 39:37.39 |  5:47.36 |    178314    |   204374
       10  | 45:25.00 |  5:03.16 |    204375    |   227115
       11  | 50:28.16 |  3:46.31 |    227116    |   244096
Track  1
     Filename D:\Temp\Grab\01. Pygmy Children - Low Life.wav
     Pre-gap length  0:00:02.00
     Peak level 100.0 %
     Extraction speed 3.1 X
     Track quality 99.9 %
     Test CRC 3268A536
     Copy CRC 3268A536
     Accurately ripped (confidence 4)  [0EA160EE]  (AR v2)
     Copy OK
Track  2
     Filename D:\Temp\Grab\02. Pygmy Children - Plastiq.wav
     Peak level 100.0 %
     Extraction speed 4.7 X
     Track quality 100.0 %
     Test CRC 5FAA8E8E
     Copy CRC 5FAA8E8E
     Accurately ripped (confidence 4)  [FD619D4D]  (AR v2)
     Copy OK
Track  3
     Filename D:\Temp\Grab\03. Pygmy Children - Melt.wav
     Peak level 100.0 %
     Extraction speed 5.3 X
     Track quality 100.0 %
     Test CRC F87DB682
     Copy CRC F87DB682
     Accurately ripped (confidence 4)  [DE7345E4]  (AR v2)
     Copy OK
Track  4
     Filename D:\Temp\Grab\04. Pygmy Children - This Familiar Device.wav
     Peak level 100.0 %
     Extraction speed 5.8 X
     Track quality 100.0 %
     Test CRC 523B53FC
     Copy CRC 523B53FC
     Accurately ripped (confidence 4)  [505C4D3E]  (AR v2)
     Copy OK
Track  5
     Filename D:\Temp\Grab\05. Pygmy Children - Halo Effect.wav
     Peak level 100.0 %
     Extraction speed 6.3 X
     Track quality 100.0 %
     Test CRC F7FED5F8
     Copy CRC F7FED5F8
     Accurately ripped (confidence 4)  [BDB562DA]  (AR v2)
     Copy OK
Track  6
     Filename D:\Temp\Grab\06. Pygmy Children - In The Details....wav
     Peak level 100.0 %
     Extraction speed 6.7 X
     Track quality 100.0 %
     Test CRC AAF6EC96
     Copy CRC AAF6EC96
     Accurately ripped (confidence 4)  [E0D6C2B8]  (AR v2)
     Copy OK
Track  7
     Filename D:\Temp\Grab\07. Pygmy Children - Transit.wav
     Peak level 96.7 %
     Extraction speed 6.5 X
     Track quality 99.9 %
     Test CRC E4E009A7
     Copy CRC E4E009A7
     Accurately ripped (confidence 4)  [14328F54]  (AR v2)
     Copy OK
Track  8
     Filename D:\Temp\Grab\08. Pygmy Children - Drawing Blanks.wav
     Peak level 100.0 %
     Extraction speed 7.3 X
     Track quality 100.0 %
     Test CRC BC7A56FF
     Copy CRC BC7A56FF
     Accurately ripped (confidence 4)  [89AE019D]  (AR v2)
     Copy OK
Track  9
     Filename D:\Temp\Grab\09. Pygmy Children - Parasite.wav
     Peak level 90.9 %
     Extraction speed 7.7 X
     Track quality 100.0 %
     Test CRC 8293333B
     Copy CRC 8293333B
     Accurately ripped (confidence 4)  [A37D98AD]  (AR v2)
     Copy OK
Track 10
     Filename D:\Temp\Grab\10. Pygmy Children - Saviour.wav
     Peak level 100.0 %
     Extraction speed 7.9 X
     Track quality 100.0 %
     Test CRC 3A1075C3
     Copy CRC 3A1075C3
     Accurately ripped (confidence 4)  [A1E579AD]  (AR v2)
     Copy OK
Track 11
     Filename D:\Temp\Grab\11. Pygmy Children - In The Details... (Edit).wav
     Peak level 100.0 %
     Extraction speed 6.9 X
     Track quality 99.9 %
     Test CRC FA97AD85
     Copy CRC FA97AD85
     Accurately ripped (confidence 4)  [6BD1ED70]  (AR v2)
     Copy OK
All tracks accurately ripped
No errors occurred
End of status report
---- CUETools DB Plugin V2.1.6
[CTDB TOCID: YZu1A_z_NKonKNnsxu5YNKkXgFw-] found
Submit result: YZu1A_z_NKonKNnsxu5YNKkXgFw- has been confirmed
Track | CTDB Status
  1   | (4/4) Accurately ripped
  2   | (4/4) Accurately ripped
  3   | (4/4) Accurately ripped
  4   | (4/4) Accurately ripped
  5   | (4/4) Accurately ripped
  6   | (4/4) Accurately ripped
  7   | (4/4) Accurately ripped
  8   | (4/4) Accurately ripped
  9   | (4/4) Accurately ripped
 10   | (4/4) Accurately ripped
 11   | (4/4) Accurately ripped
==== Log checksum B3C968A907AEA51EEBEE2E8C5F084B0EE5D79B57CC84C8BFC17CBE2CB1E7FFA4 ====
Код:
REM GENRE Electro-Industrial/EBM
REM DATE 1998
REM DISCID 830CB60B
REM COMMENT "ExactAudioCopy v1.3"
PERFORMER "Pygmy Children"
TITLE "Low Life Dream"
REM COMPOSER "Brian Roper, Pete Roper"
FILE "01. Pygmy Children - Low Life.wav" WAVE
  TRACK 01 AUDIO
    TITLE "Low Life"
    PERFORMER "Pygmy Children"
    REM COMPOSER "Brian Roper, Pete Roper"
    INDEX 01 00:00:00
FILE "02. Pygmy Children - Plastiq.wav" WAVE
  TRACK 02 AUDIO
    TITLE "Plastiq"
    PERFORMER "Pygmy Children"
    REM COMPOSER "Brian Roper, Pete Roper"
    INDEX 01 00:00:00
FILE "03. Pygmy Children - Melt.wav" WAVE
  TRACK 03 AUDIO
    TITLE "Melt"
    PERFORMER "Pygmy Children"
    REM COMPOSER "Brian Roper, Pete Roper"
    INDEX 01 00:00:00
FILE "04. Pygmy Children - This Familiar Device.wav" WAVE
  TRACK 04 AUDIO
    TITLE "This Familiar Device"
    PERFORMER "Pygmy Children"
    REM COMPOSER "Brian Roper, Pete Roper"
    INDEX 01 00:00:00
FILE "05. Pygmy Children - Halo Effect.wav" WAVE
  TRACK 05 AUDIO
    TITLE "Halo Effect"
    PERFORMER "Pygmy Children"
    REM COMPOSER "Brian Roper, Pete Roper"
    INDEX 01 00:00:00
FILE "06. Pygmy Children - In The Details....wav" WAVE
  TRACK 06 AUDIO
    TITLE "In The Details..."
    PERFORMER "Pygmy Children"
    REM COMPOSER "Brian Roper, Pete Roper"
    INDEX 01 00:00:00
FILE "07. Pygmy Children - Transit.wav" WAVE
  TRACK 07 AUDIO
    TITLE "Transit"
    PERFORMER "Pygmy Children"
    REM COMPOSER "Brian Roper, Pete Roper"
    INDEX 01 00:00:00
FILE "08. Pygmy Children - Drawing Blanks.wav" WAVE
  TRACK 08 AUDIO
    TITLE "Drawing Blanks"
    PERFORMER "Pygmy Children"
    REM COMPOSER "Brian Roper, Pete Roper"
    INDEX 01 00:00:00
FILE "09. Pygmy Children - Parasite.wav" WAVE
  TRACK 09 AUDIO
    TITLE "Parasite"
    PERFORMER "Pygmy Children"
    REM COMPOSER "Brian Roper, Pete Roper"
    INDEX 01 00:00:00
FILE "10. Pygmy Children - Saviour.wav" WAVE
  TRACK 10 AUDIO
    TITLE "Saviour"
    PERFORMER "Pygmy Children"
    REM COMPOSER "Brian Roper, Pete Roper"
    INDEX 01 00:00:00
FILE "11. Pygmy Children - In The Details... (Edit).wav" WAVE
  TRACK 11 AUDIO
    TITLE "In The Details... (Edit)"
    PERFORMER "Pygmy Children"
    REM COMPOSER "Brian Roper, Pete Roper"
    INDEX 01 00:00:00
Правила, инструкции, FAQ!!!
Торрент  Добавлен [26 июн 2020, 17:20] Скачать торрент Магнет ссылка
Скачать торрент
[ Размер 16.07 КБ / Просмотров 1 ]

Статус
Проверен 
 
Размер  363.88 МБ
Приватный: Нет (DHT включён)
.torrent скачан  0
 


     Отправить личное сообщение
   
Страница 1 из 1
Показать сообщения за:  Поле сортировки  
Начать новую тему Ответить на тему


Сейчас этот форум просматривают: нет зарегистрированных пользователей и гости: 0


Вы не можете начинать темы
Вы не можете отвечать на сообщения
Вы не можете редактировать свои сообщения
Вы не можете удалять свои сообщения
Вы не можете добавлять вложения

Перейти:  
cron