Начать новую тему Ответить на тему
Статистика раздачи
Размер: 492.1 МБ | Добавлен: 26 июн 2020, 17:10 | Скачали: 0
Сидеров: 0  [0 байт/сек]    Личеров: 0  [0 байт/сек]
Пред. тема | След. тема 

Автор
Сообщение

СообщениеДобавлено: 26 июн 2020, 17:10 

Ответить с цитатой 

Psychopomps - Assassins DK United
Жанр: EBM, Industrial
Год выпуска диска: 1992
Производитель диска: US Cleopatra
Аудио кодек: FLAC
Тип рипа: tracks+.cue
Трэклист:
1 Godshit (5:22)
2 Drug Addict (5:44)
3 Hate (4:01)
4 Pub Ban (4:29)
5 Animals (4:46)
6 Infection (3:39)
7 Spanner (3:54)
8 Somnambulism (6:04)
9 Sadistic Killer Instinct (5:11)
10 If I Die... (2:54)
11 Masturbation Generation (6:07)
12 Wanted To Tell You (5:02)
13 Baby-Terror, Baby (11:17)
14 [Hidden Track] (6:13)
Доп. информация:
Exact Audio Copy V0.99 prebeta 4 from 23. January 2008
Отчёт EAC об извлечении, выполненном 9. ноября 2008, 23:30
Psychopomps / Assassins DK United
Дисковод: _NEC CDRW/DVD CB1100A Adapter: 4 ID: 0
Режим чтения : Достоверность
Использование точного потока : Да
Отключение кэша аудио : Да
Использование указателей C2 : Нет
Коррекция смещения при чтении : 6
Способность читать области Lead-in и Lead-out : Нет
Заполнение пропущенных сэмплов тишиной : Да
Удаление блоков с тишиной в начале и конце : Нет
При вычислениях CRC использовались нулевые сэмплы : Да
Интерфейс : Установленный внешний ASPI-интерфейс
Обработка зазоров : Добавлено к предыдущему треку
Выходной формат : Пользовательский кодировщик
Выбранный битрейт : 192 kBit/s
Качество : Высокий
Добавление ID3-тэга : Нет
Утилита сжатия : C:\Program Files\Exact Audio Copy\Flac\flac.exe
Дополнительные параметры : -8 -V -T "ARTIST=%a" -T "TITLE=%t" -T "ALBUM=%g" -T "DATE=%y" -T "TRACKNUMBER=%n" -T "GENRE=%m" -T "COMMENT=%e" %s -o %d
TOC извлечённого CD
Трек | Старт | Длительность | Начальный сектор | Конечный сектор
---------------------------------------------------------------------
1 | 0:00.32 | 5:22.13 | 32 | 24194
2 | 5:22.45 | 5:44.25 | 24195 | 50019
3 | 11:06.70 | 4:01.50 | 50020 | 68144
4 | 15:08.45 | 4:49.37 | 68145 | 89856
5 | 19:58.07 | 4:46.25 | 89857 | 111331
6 | 24:44.32 | 3:39.38 | 111332 | 127794
7 | 28:23.70 | 3:54.12 | 127795 | 145356
8 | 32:18.07 | 6:04.63 | 145357 | 172719
9 | 38:22.70 | 5:11.72 | 172720 | 196116
10 | 43:34.67 | 2:54.38 | 196117 | 209204
11 | 46:29.30 | 6:07.27 | 209205 | 236756
12 | 52:36.57 | 5:02.10 | 236757 | 259416
13 | 57:38.67 | 11:17.05 | 259417 | 310196
14 | 68:55.72 | 6:13.50 | 310197 | 338221
Трек 1
Имя файла E:\FLAC\Psychopomps - Assassins DK United(1992)\01 - Psychopomps - Godshit .wav
Длина предзазора 0:00:02.42
Пиковый уровень 97.1 %
Качество трека 100.0 %
CRC теста 4EEADED5
CRC копии 4EEADED5
Точное извлечение (достоверность 4) [C871BBAC]
Копирование... OK
Трек 2
Имя файла E:\FLAC\Psychopomps - Assassins DK United(1992)\02 - Psychopomps - Drug Addict .wav
Длина предзазора 0:00:00.73
Пиковый уровень 97.4 %
Качество трека 99.9 %
CRC теста B5236AF8
CRC копии B5236AF8
Точное извлечение (достоверность 4) [85477369]
Копирование... OK
Трек 3
Имя файла E:\FLAC\Psychopomps - Assassins DK United(1992)\03 - Psychopomps - Hate .wav
Длина предзазора 0:00:01.69
Пиковый уровень 97.4 %
Качество трека 100.0 %
CRC теста E45F9B7D
CRC копии E45F9B7D
Точное извлечение (достоверность 4) [B969AFB1]
Копирование... OK
Трек 4
Имя файла E:\FLAC\Psychopomps - Assassins DK United(1992)\04 - Psychopomps - Pub Ban .wav
Длина предзазора 0:00:01.69
Пиковый уровень 98.0 %
Качество трека 100.0 %
CRC теста 8950D3FC
CRC копии 8950D3FC
Точное извлечение (достоверность 4) [7A7202FE]
Копирование... OK
Трек 5
Имя файла E:\FLAC\Psychopomps - Assassins DK United(1992)\05 - Psychopomps - Animals .wav
Длина предзазора 0:00:01.69
Пиковый уровень 96.7 %
Качество трека 100.0 %
CRC теста F06BB874
CRC копии F06BB874
Точное извлечение (достоверность 4) [834FE0ED]
Копирование... OK
Трек 6
Имя файла E:\FLAC\Psychopomps - Assassins DK United(1992)\06 - Psychopomps - Infection .wav
Длина предзазора 0:00:01.69
Пиковый уровень 97.9 %
Качество трека 99.9 %
CRC теста B02EBD05
CRC копии B02EBD05
Точное извлечение (достоверность 4) [5ED590BC]
Копирование... OK
Трек 7
Имя файла E:\FLAC\Psychopomps - Assassins DK United(1992)\07 - Psychopomps - Spanner .wav
Длина предзазора 0:00:01.69
Пиковый уровень 98.5 %
Качество трека 100.0 %
CRC теста BA9C15D8
CRC копии BA9C15D8
Точное извлечение (достоверность 4) [0C3DE113]
Копирование... OK
Трек 8
Имя файла E:\FLAC\Psychopomps - Assassins DK United(1992)\08 - Psychopomps - Somnambulism .wav
Длина предзазора 0:00:01.69
Пиковый уровень 97.6 %
Качество трека 100.0 %
CRC теста A48776DC
CRC копии A48776DC
Точное извлечение (достоверность 4) [F14F6CD3]
Копирование... OK
Трек 9
Имя файла E:\FLAC\Psychopomps - Assassins DK United(1992)\09 - Psychopomps - Sadistic Killer Instinct .wav
Длина предзазора 0:00:01.69
Пиковый уровень 97.2 %
Качество трека 100.0 %
CRC теста 8177CB1E
CRC копии 8177CB1E
Точное извлечение (достоверность 4) [AEA213EE]
Копирование... OK
Трек 10
Имя файла E:\FLAC\Psychopomps - Assassins DK United(1992)\10 - Psychopomps - If I Die... .wav
Длина предзазора 0:00:01.69
Пиковый уровень 99.6 %
Качество трека 100.0 %
CRC теста 2E165027
CRC копии 2E165027
Точное извлечение (достоверность 4) [35281B53]
Копирование... OK
Трек 11
Имя файла E:\FLAC\Psychopomps - Assassins DK United(1992)\11 - Psychopomps - Masturbation Generation .wav
Длина предзазора 0:00:01.69
Пиковый уровень 97.4 %
Качество трека 100.0 %
CRC теста F112E4CE
CRC копии F112E4CE
Точное извлечение (достоверность 4) [F07B5354]
Копирование... OK
Трек 12
Имя файла E:\FLAC\Psychopomps - Assassins DK United(1992)\12 - Psychopomps - Wanted to Tell You .wav
Длина предзазора 0:00:01.69
Пиковый уровень 99.6 %
Качество трека 100.0 %
CRC теста 016885B7
CRC копии 016885B7
Точное извлечение (достоверность 4) [914C9137]
Копирование... OK
Трек 13
Имя файла E:\FLAC\Psychopomps - Assassins DK United(1992)\13 - Psychopomps - Baby- Terror, Baby .wav
Длина предзазора 0:00:01.69
Пиковый уровень 96.1 %
Качество трека 99.9 %
CRC теста C11FF7A3
CRC копии C11FF7A3
Точное извлечение (достоверность 4) [55E1A0C3]
Копирование... OK
Трек 14
Имя файла E:\FLAC\Psychopomps - Assassins DK United(1992)\14 - Psychopomps - Godshit (Gods Hit!) .wav
Длина предзазора 0:00:01.69
Пиковый уровень 98.6 %
Качество трека 100.0 %
CRC теста A3D702BC
CRC копии A3D702BC
Точное извлечение (достоверность 4) [156BB1E3]
Копирование... OK
Все треки извлечены точно
Ошибок не произошло
Конец отчёта
Правила, инструкции, FAQ!!!
Торрент  Добавлен [26 июн 2020, 17:10] Скачать торрент Магнет ссылка
Скачать торрент
[ Размер 21.08 КБ / Просмотров 2 ]

Статус
Проверен 
 
Размер  492.1 МБ
Приватный: Нет (DHT включён)
.torrent скачан  0
 


     Отправить личное сообщение
   
Страница 1 из 1
Показать сообщения за:  Поле сортировки  
Начать новую тему Ответить на тему


Сейчас этот форум просматривают: нет зарегистрированных пользователей и гости: 0


Вы не можете начинать темы
Вы не можете отвечать на сообщения
Вы не можете редактировать свои сообщения
Вы не можете удалять свои сообщения
Вы не можете добавлять вложения

Перейти:  
cron