Начать новую тему Ответить на тему
Статистика раздачи
Размер: 429.19 МБ | Добавлен: 26 июн 2020, 17:23 | Скачали: 0
Сидеров: 0  [0 байт/сек]    Личеров: 0  [0 байт/сек]
Пред. тема | След. тема 

Автор
Сообщение

СообщениеДобавлено: 26 июн 2020, 17:23 

Ответить с цитатой 

Psyborg Corp. / The Mechanical Renaissance
Жанр: EBM, Industrial
Страна-производитель диска: Germany
Год издания диска: 2010
Издатель (лейбл): Noitekk
Номер по каталогу: NTK 037
Страна: Colombia
Аудио кодек: FLAC (*.flac)
Тип рипа: tracks+.cue
Битрейт аудио: lossless
Продолжительность: 53:24
Источник (релизер): CD-R
Наличие сканов в содержимом раздачи: нет
Треклист:
1 Lullaby (Blessed By Plutonium) 1:09
2 Technocracy 5:18
3 My Mechatronics 5:15
4 Biopunk Lab 4:04
5 Nanotech And The Grey Goo Replicators 3:42
6 Interdimensional Hyperdrive 5:21
7 Starbeam Antarctica 3:54
8 The Velvet Machina 4:16
9 Hateneration 4:07
10 World Genocide Blast 5:00
11 Bionic Enhancement 5:03
12 In Our Chaotic Network 6:17
Код:
Exact Audio Copy V0.99 prebeta 5 from 4. May 2009
Отчёт EAC об извлечении, выполненном 23. сентября 2010, 18:43
Psyborg Corp / The Mechanical Renaissance
Дисковод: PIONEER DVD-RW  DVR-216D   Adapter: 0  ID: 0
Режим чтения                 : Достоверность
Использование точного потока : Да
Отключение кэша аудио        : Да
Использование указателей C2  : Нет
Коррекция смещения при чтении                     : 96
Способность читать области Lead-in и Lead-out     : Нет
Заполнение пропущенных сэмплов тишиной            : Да
Удаление блоков с тишиной в начале и конце        : Нет
При вычислениях CRC использовались нулевые сэмплы : Да
Интерфейс                                         : Встроенный Win32-интерфейс для Win NT/2000
Обработка зазоров                                 : Добавлено к предыдущему треку
Выходной формат          : Пользовательский кодировщик
Выбранный битрейт        : 1024 kBit/s
Качество                 : Высокий
Добавление ID3-тэга      : Нет
Утилита сжатия           : C:\Program Files (x86)\Exact Audio Copy\Flac\flac.exe
Дополнительные параметры : -8 -V -T "ARTIST=%a" -T "TITLE=%t" -T "ALBUM=%g" -T "DATE=%y" -T "TRACKNUMBER=%n" -T "GENRE=%m" -T "COMMENT=EAC FLAC -8" %s
TOC извлечённого CD
     Трек |   Старт  | Длительность | Начальный сектор | Конечный сектор
    ---------------------------------------------------------------------
       1  |  0:00.00 |    1:08.43   |           0      |       5142
       2  |  1:08.43 |    5:17.65   |        5143      |      28982
       3  |  6:26.33 |    5:14.70   |       28983      |      52602
       4  | 11:41.28 |    4:03.44   |       52603      |      70871
       5  | 15:44.72 |    3:42.02   |       70872      |      87523
       6  | 19:26.74 |    5:21.28   |       87524      |     111626
       7  | 24:48.27 |    3:53.68   |      111627      |     129169
       8  | 28:42.20 |    4:16.06   |      129170      |     148375
       9  | 32:58.26 |    4:06.42   |      148376      |     166867
      10  | 37:04.68 |    4:59.40   |      166868      |     189332
      11  | 42:04.33 |    5:02.42   |      189333      |     212024
      12  | 47:07.00 |    6:16.42   |      212025      |     240266
Трек  1
     Имя файла I:\Audio\TORRENTS\Psyborg Corp. - The Mechanical Renaissance\tracks\ 01. Psyborg Corp – Lullaby (Blessed by Plutonium).wav
     Длина предзазора  0:00:02.00
     Пиковый уровень 98.9 %
     Качество трека 100.0 %
     CRC теста 97F61C6D
     CRC копии 97F61C6D
     Трек не обнаружен в базе AccurateRip
     Копирование... OK
Трек  2
     Имя файла I:\Audio\TORRENTS\Psyborg Corp. - The Mechanical Renaissance\tracks\ 02. Psyborg Corp – Technocracy.wav
     Пиковый уровень 98.9 %
     Качество трека 100.0 %
     CRC теста 236FEB27
     CRC копии 236FEB27
     Трек не обнаружен в базе AccurateRip
     Копирование... OK
Трек  3
     Имя файла I:\Audio\TORRENTS\Psyborg Corp. - The Mechanical Renaissance\tracks\ 03. Psyborg Corp – My Mechatronics.wav
     Пиковый уровень 98.8 %
     Качество трека 100.0 %
     CRC теста 5808BD18
     CRC копии 5808BD18
     Трек не обнаружен в базе AccurateRip
     Копирование... OK
Трек  4
     Имя файла I:\Audio\TORRENTS\Psyborg Corp. - The Mechanical Renaissance\tracks\ 04. Psyborg Corp – Biopunk Lab.wav
     Пиковый уровень 98.9 %
     Качество трека 100.0 %
     CRC теста D7421B09
     CRC копии D7421B09
     Трек не обнаружен в базе AccurateRip
     Копирование... OK
Трек  5
     Имя файла I:\Audio\TORRENTS\Psyborg Corp. - The Mechanical Renaissance\tracks\ 05. Psyborg Corp – Nanotech and the Grey Goo Replicators.wav
     Пиковый уровень 98.8 %
     Качество трека 100.0 %
     CRC теста 9078502C
     CRC копии 9078502C
     Трек не обнаружен в базе AccurateRip
     Копирование... OK
Трек  6
     Имя файла I:\Audio\TORRENTS\Psyborg Corp. - The Mechanical Renaissance\tracks\ 06. Psyborg Corp – Interdimensional Hyperdrive.wav
     Пиковый уровень 98.8 %
     Качество трека 100.0 %
     CRC теста C4F547B8
     CRC копии C4F547B8
     Трек не обнаружен в базе AccurateRip
     Копирование... OK
Трек  7
     Имя файла I:\Audio\TORRENTS\Psyborg Corp. - The Mechanical Renaissance\tracks\ 07. Psyborg Corp – Starbeam Antarctica.wav
     Пиковый уровень 98.9 %
     Качество трека 100.0 %
     CRC теста C99C73B0
     CRC копии C99C73B0
     Трек не обнаружен в базе AccurateRip
     Копирование... OK
Трек  8
     Имя файла I:\Audio\TORRENTS\Psyborg Corp. - The Mechanical Renaissance\tracks\ 08. Psyborg Corp – The Velvet Machina.wav
     Пиковый уровень 98.9 %
     Качество трека 100.0 %
     CRC теста 28BC30B4
     CRC копии 28BC30B4
     Трек не обнаружен в базе AccurateRip
     Копирование... OK
Трек  9
     Имя файла I:\Audio\TORRENTS\Psyborg Corp. - The Mechanical Renaissance\tracks\ 09. Psyborg Corp – Hateneration.wav
     Пиковый уровень 98.9 %
     Качество трека 100.0 %
     CRC теста 0DD53090
     CRC копии 0DD53090
     Трек не обнаружен в базе AccurateRip
     Копирование... OK
Трек 10
     Имя файла I:\Audio\TORRENTS\Psyborg Corp. - The Mechanical Renaissance\tracks\ 10. Psyborg Corp – World Genocide Blast.wav
     Пиковый уровень 98.9 %
     Качество трека 99.9 %
     CRC теста 9A19AAA5
     CRC копии 9A19AAA5
     Трек не обнаружен в базе AccurateRip
     Копирование... OK
Трек 11
     Имя файла I:\Audio\TORRENTS\Psyborg Corp. - The Mechanical Renaissance\tracks\ 11. Psyborg Corp – Bionic Enhancement.wav
     Пиковый уровень 98.9 %
     Качество трека 100.0 %
     CRC теста 9FCFD9A7
     CRC копии 9FCFD9A7
     Трек не обнаружен в базе AccurateRip
     Копирование... OK
Трек 12
     Имя файла I:\Audio\TORRENTS\Psyborg Corp. - The Mechanical Renaissance\tracks\ 12. Psyborg Corp – In Our Chaotic Network.wav
     Пиковый уровень 98.9 %
     Качество трека 99.9 %
     CRC теста 34BD73A7
     CRC копии 34BD73A7
     Трек не обнаружен в базе AccurateRip
     Копирование... OK
Ни одного трека нет в базе AccurateRip
Ошибок не произошло
Конец отчёта
Код:
REM DISCID A70C830C
REM COMMENT "ExactAudioCopy v0.99pb5"
PERFORMER "Psyborg Corp"
TITLE "The Mechanical Renaissance"
FILE " 01. Psyborg Corp – Lullaby (Blessed by Plutonium).wav" WAVE
  TRACK 01 AUDIO
    TITLE "Lullaby (Blessed by Plutonium)"
    PERFORMER "Psyborg Corp"
    INDEX 01 00:00:00
FILE " 02. Psyborg Corp – Technocracy.wav" WAVE
  TRACK 02 AUDIO
    TITLE "Technocracy "
    PERFORMER "Psyborg Corp"
    INDEX 01 00:00:00
FILE " 03. Psyborg Corp – My Mechatronics.wav" WAVE
  TRACK 03 AUDIO
    TITLE "My Mechatronics "
    PERFORMER "Psyborg Corp"
    INDEX 01 00:00:00
FILE " 04. Psyborg Corp – Biopunk Lab.wav" WAVE
  TRACK 04 AUDIO
    TITLE "Biopunk Lab "
    PERFORMER "Psyborg Corp"
    INDEX 01 00:00:00
FILE " 05. Psyborg Corp – Nanotech and the Grey Goo Replicators.wav" WAVE
  TRACK 05 AUDIO
    TITLE "Nanotech and the Grey Goo Replicators"
    PERFORMER "Psyborg Corp"
    INDEX 01 00:00:00
FILE " 06. Psyborg Corp – Interdimensional Hyperdrive.wav" WAVE
  TRACK 06 AUDIO
    TITLE "Interdimensional Hyperdrive"
    PERFORMER "Psyborg Corp"
    INDEX 01 00:00:00
FILE " 07. Psyborg Corp – Starbeam Antarctica.wav" WAVE
  TRACK 07 AUDIO
    TITLE "Starbeam Antarctica "
    PERFORMER "Psyborg Corp"
    INDEX 01 00:00:00
FILE " 08. Psyborg Corp – The Velvet Machina.wav" WAVE
  TRACK 08 AUDIO
    TITLE "The Velvet Machina "
    PERFORMER "Psyborg Corp"
    INDEX 01 00:00:00
FILE " 09. Psyborg Corp – Hateneration.wav" WAVE
  TRACK 09 AUDIO
    TITLE "Hateneration "
    PERFORMER "Psyborg Corp"
    INDEX 01 00:00:00
FILE " 10. Psyborg Corp – World Genocide Blast.wav" WAVE
  TRACK 10 AUDIO
    TITLE "World Genocide Blast"
    PERFORMER "Psyborg Corp"
    INDEX 01 00:00:00
FILE " 11. Psyborg Corp – Bionic Enhancement.wav" WAVE
  TRACK 11 AUDIO
    TITLE "Bionic Enhancement"
    PERFORMER "Psyborg Corp"
    INDEX 01 00:00:00
FILE " 12. Psyborg Corp – In Our Chaotic Network.wav" WAVE
  TRACK 12 AUDIO
    TITLE "In Our Chaotic Network"
    PERFORMER "Psyborg Corp"
    INDEX 01 00:00:00
Код:
Started at: четверг, 23. 09. 2010. - 18:10.20
12 files found
01 -===- track 1 in drive PIONEER DVD-RW  DVR-216D
  Track ripped successfully
  Conclusion: this track is CDDA with probability 100%
  Tempfile successfully deleted.
02 -===- track 2 in drive PIONEER DVD-RW  DVR-216D
  Track ripped successfully
  Conclusion: this track is CDDA with probability 100%
  Tempfile successfully deleted.
03 -===- track 3 in drive PIONEER DVD-RW  DVR-216D
  Track ripped successfully
  Conclusion: this track is CDDA with probability 100%
  Tempfile successfully deleted.
04 -===- track 4 in drive PIONEER DVD-RW  DVR-216D
  Track ripped successfully
  Conclusion: this track is CDDA with probability 100%
  Tempfile successfully deleted.
05 -===- track 5 in drive PIONEER DVD-RW  DVR-216D
  Track ripped successfully
  Conclusion: this track is CDDA with probability 100%
  Tempfile successfully deleted.
06 -===- track 6 in drive PIONEER DVD-RW  DVR-216D
  Track ripped successfully
  Conclusion: this track is CDDA with probability 100%
  Tempfile successfully deleted.
07 -===- track 7 in drive PIONEER DVD-RW  DVR-216D
  Track ripped successfully
  Conclusion: this track is CDDA with probability 100%
  Tempfile successfully deleted.
08 -===- track 8 in drive PIONEER DVD-RW  DVR-216D
  Track ripped successfully
  Conclusion: this track is CDDA with probability 100%
  Tempfile successfully deleted.
09 -===- track 9 in drive PIONEER DVD-RW  DVR-216D
  Track ripped successfully
  Conclusion: this track is CDDA with probability 100%
  Tempfile successfully deleted.
10 -===- track 10 in drive PIONEER DVD-RW  DVR-216D
  Track ripped successfully
  Conclusion: this track is CDDA with probability 100%
  Tempfile successfully deleted.
11 -===- track 11 in drive PIONEER DVD-RW  DVR-216D
  Track ripped successfully
  Conclusion: this track is CDDA with probability 100%
  Tempfile successfully deleted.
12 -===- track 12 in drive PIONEER DVD-RW  DVR-216D
  Track ripped successfully
  Conclusion: this track is CDDA with probability 100%
  Tempfile successfully deleted.
Finished at: четверг, 23. 09. 2010. - 18:18.42 (operation time: 0:08.22)


Правила, инструкции, FAQ!!!
Торрент  Добавлен [26 июн 2020, 17:23] Скачать торрент Магнет ссылка
Скачать торрент
[ Размер 19.06 КБ / Просмотров 12 ]

Статус
Проверен 
 
Размер  429.19 МБ
Приватный: Нет (DHT включён)
.torrent скачан  0
 


     Отправить личное сообщение
   
Страница 1 из 1
Показать сообщения за:  Поле сортировки  
Начать новую тему Ответить на тему


Сейчас этот форум просматривают: нет зарегистрированных пользователей и гости: 0


Вы не можете начинать темы
Вы не можете отвечать на сообщения
Вы не можете редактировать свои сообщения
Вы не можете удалять свои сообщения
Вы не можете добавлять вложения

Перейти:  
cron