Начать новую тему Ответить на тему
Статистика раздачи
Размер: 141.69 МБ | Добавлен: 26 июн 2020, 21:00 | Скачали: 0
Сидеров: 0  [0 байт/сек]    Личеров: 0  [0 байт/сек]
Пред. тема | След. тема 

Автор
Сообщение

СообщениеДобавлено: 26 июн 2020, 21:00 

Ответить с цитатой 

Project Pitchfork / Psychic Torture [Maxi-Single]
Жанр: EBM, Industrial
Страна-производитель диска: Germany
Год издания диска: 1994
Издатель (лейбл): SPV Recordings, SPV GmbH
Номер по каталогу: SPV 055-96423
Страна: Germany
Аудио кодек: FLAC (*.flac)
Тип рипа: image+.cue
Битрейт аудио: lossless
Продолжительность: 00:18:22
Источник (релизер): Личный диск
Наличие сканов в содержимом раздачи: да
Треклист:
1. Psychic Torture 4:22
2. Ruins Of Ignorance 4:57
3. Precious New World 4:45
4. K.N.K.A. (Climax Version) 4:16
Код:
Exact Audio Copy V0.99 prebeta 5 from 4. May 2009
Отчёт EAC об извлечении, выполненном 29. января 2011, 19:01
Project Pitchfork / Psychic Torture
Дисковод: PIONEER DVD-RW DVRTD10RS   Adapter: 1  ID: 0
Режим чтения                 : Достоверность
Использование точного потока : Да
Отключение кэша аудио        : Да
Использование указателей C2  : Нет
Коррекция смещения при чтении                     : 6
Способность читать области Lead-in и Lead-out     : Нет
Заполнение пропущенных сэмплов тишиной            : Да
Удаление блоков с тишиной в начале и конце        : Нет
При вычислениях CRC использовались нулевые сэмплы : Да
Интерфейс                                         : Встроенный Win32-интерфейс для Win NT/2000
Выходной формат : Внутренние WAV-операции
Формат сэмплов  : 44.100 Гц; 16 бит; стерео
TOC извлечённого CD
     Трек |   Старт  | Длительность | Начальный сектор | Конечный сектор
    ---------------------------------------------------------------------
       1  |  0:00.32 |    4:22.55   |          32      |      19736
       2  |  4:23.12 |    4:57.53   |       19737      |      42064
       3  |  9:20.65 |    4:45.00   |       42065      |      63439
       4  | 14:05.65 |    4:16.05   |       63440      |      82644
Характеристики диапазона извлечения и сообщения об ошибках
Выбранный диапазон
     Имя файла C:\Раздачи DEHUMANOID\Project Pitchfork - Psychic Tortur\Project Pitchfork - Psychic Torture.wav
     Пиковый уровень 100.0 %
     Качество диапазона 100 %
     CRC теста 03D68988
     CRC копии 03D68988
     Копирование... OK
Ошибок не произошло
AccurateRip: сводка
Трек  1   точное извлечение (доверие 7) [4600D3EC]
Трек  2   точное извлечение (доверие 7) [7433FFE1]
Трек  3   точное извлечение (доверие 6) [62DBD788]
Трек  4   точное извлечение (доверие 7) [B011D681]
Все треки извлечены точно
Конец отчёта
Код:
Started at: четверг, 03. 02. 2011. - 16:35.10
1 file found
1 -===- D:\Раздачи DEHUMANOID\Project Pitchfork - Psychic Torture\Project Pitchfork - Psychic Torture.flac
  Extracted successfully
  Conclusion: this track is MPEG with probability 95%
  Tempfile successfully deleted
Finished at: четверг, 03. 02. 2011. - 16:36.52 (operation time: 0:01.42)
Правила, инструкции, FAQ!!!
Торрент  Добавлен [26 июн 2020, 21:00] Скачать торрент Магнет ссылка
Скачать торрент
[ Размер 11.95 КБ / Просмотров 3 ]

Статус
Проверен 
 
Размер  141.69 МБ
Приватный: Нет (DHT включён)
.torrent скачан  0
 


     Отправить личное сообщение
   
Страница 1 из 1
Показать сообщения за:  Поле сортировки  
Начать новую тему Ответить на тему


Сейчас этот форум просматривают: нет зарегистрированных пользователей и гости: 0


Вы не можете начинать темы
Вы не можете отвечать на сообщения
Вы не можете редактировать свои сообщения
Вы не можете удалять свои сообщения
Вы не можете добавлять вложения

Перейти:  
cron