Начать новую тему Ответить на тему
Статистика раздачи
Размер: 433.12 МБ | Добавлен: 26 июн 2020, 17:24 | Скачали: 0
Сидеров: 0  [0 байт/сек]    Личеров: 0  [0 байт/сек]
Пред. тема | След. тема 

Автор
Сообщение

СообщениеДобавлено: 26 июн 2020, 17:24 

Ответить с цитатой 

Prager Handgriff - Schindluder
Жанр: EBM, Industrial
Год выпуска диска: 1999
Страна: Germany
Аудио кодек: FLAC
Тип рипа: image+.cue
Битрейт аудио: lossless
Продолжительность: 00:59:23
Трэклист:
1 Erinnerung Verblasst 5:44
2 Teufelsküche 4:56
3 Das Geheimnis 5:01
4 Utopia 6:05
5 Frontal 4:47
6 Die Armee Der Verdammten 6:16
7 Ein Augenblick 4:29
8 Sehnsucht 6:34
9 Schindluder 4:03
10 Sechzehn Jahre 5:50
11 Der Letzte Tag
Код:
Exact Audio Copy V0.99 prebeta 5 from 4. May 2009
Отчёт EAC об извлечении, выполненном 6. февраля 2010, 19:07
Prager Handgriff / Schindluder
Дисковод: PLEXTOR DVDR   PX-820SA   Adapter: 2  ID: 0
Режим чтения                 : Достоверность
Использование точного потока : Да
Отключение кэша аудио        : Да
Использование указателей C2  : Нет
Коррекция смещения при чтении                     : 48
Способность читать области Lead-in и Lead-out     : Нет
Заполнение пропущенных сэмплов тишиной            : Да
Удаление блоков с тишиной в начале и конце        : Нет
При вычислениях CRC использовались нулевые сэмплы : Да
Интерфейс                                         : Установленный внешний ASPI-интерфейс
Выходной формат          : Пользовательский кодировщик
Выбранный битрейт        : 1024 kBit/s
Качество                 : Высокий
Добавление ID3-тэга      : Нет
Утилита сжатия           : C:\Program Files\Exact Audio Copy\FLAC\FLAC.EXE
Дополнительные параметры : -8 -V -T "ARTIST=%a" -T "TITLE=%t" -T "ALBUM=%g" -T "DATE=%y" -T "TRACKNUMBER=%n" -T "GENRE=%m" -T "COMMENT=%e" %s -o %d
TOC извлечённого CD
     Трек |   Старт  | Длительность | Начальный сектор | Конечный сектор
    ---------------------------------------------------------------------
       1  |  0:00.00 |    5:44.05   |           0      |      25804
       2  |  5:44.05 |    4:56.10   |       25805      |      48014
       3  | 10:40.15 |    5:01.10   |       48015      |      70599
       4  | 15:41.25 |    6:05.37   |       70600      |      98011
       5  | 21:46.62 |    4:47.13   |       98012      |     119549
       6  | 26:34.00 |    6:16.09   |      119550      |     147758
       7  | 32:50.09 |    4:29.14   |      147759      |     167947
       8  | 37:19.23 |    6:34.06   |      167948      |     197503
       9  | 43:53.29 |    4:03.27   |      197504      |     215755
      10  | 47:56.56 |    5:50.06   |      215756      |     242011
      11  | 53:46.62 |    5:36.34   |      242012      |     267245
Характеристики диапазона извлечения и сообщения об ошибках
Выбранный диапазон
     Имя файла E:\Torrent Download\Prager Handgriff - Schindluder (1999)\Prager Handgriff - Schindluder.wav
     Пиковый уровень 100.0 %
     Качество диапазона 100.0 %
     CRC теста 28DF43FB
     CRC копии 28DF43FB
     Копирование... OK
Ошибок не произошло
Конец отчёта
Код:
AUDIOCHECKER v2.0 beta (build 457) - by Dester - opdester@freemail.hu
~~~~~~~~~~~~~~~~~~~~~~~~~~~~~~~~~~
-=== НЕ РЕДАКТИРУЙТЕ ЭТОТ ФАЙЛ! ===-
Путь: ...\Prager Handgriff - Schindluder (1999)
1 -=- Prager Handgriff - Schindluder.flac -=- CDDA (100%)
262112724
Правила, инструкции, FAQ!!!
Торрент  Добавлен [26 июн 2020, 17:24] Скачать торрент Магнет ссылка
Скачать торрент
[ Размер 17.75 КБ / Просмотров 7 ]

Статус
Проверен 
 
Размер  433.12 МБ
Приватный: Нет (DHT включён)
.torrent скачан  0
 


     Отправить личное сообщение
   
Страница 1 из 1
Показать сообщения за:  Поле сортировки  
Начать новую тему Ответить на тему


Сейчас этот форум просматривают: нет зарегистрированных пользователей и гости: 0


Вы не можете начинать темы
Вы не можете отвечать на сообщения
Вы не можете редактировать свои сообщения
Вы не можете удалять свои сообщения
Вы не можете добавлять вложения

Перейти:  
cron