Начать новую тему Ответить на тему
Статистика раздачи
Размер: 351.14 МБ | Добавлен: 26 июн 2020, 17:55 | Скачали: 0
Сидеров: 0  [0 байт/сек]    Личеров: 0  [0 байт/сек]
Пред. тема | След. тема 

Автор
Сообщение

СообщениеДобавлено: 26 июн 2020, 17:55 

Ответить с цитатой 

Pierrepoint / The Being
Жанр: EBM, Industrial
Страна-производитель диска: Germany
Год издания диска: 1995
Издатель (лейбл): Celtic Circle Productions
Номер по каталогу: C.C.P. 031
Страна: Germany
Аудио кодек: FLAC (*.flac)
Тип рипа: image+.cue
Битрейт аудио: lossless
Продолжительность: 00:45:10
Источник (релизер): Личный диск
Наличие сканов в содержимом раздачи: да
Треклист:
01. Alive 5:18
02. Castigate 4:36
03. Re-Created (V.01) 2:43
04. The Being 3:49
05. Noise Tec. 5:05
06. Blade Walk 3:34
07. Pyramid 4:01
08. Re-Created (V.02) 3:50
09. News While Stoned 1:57
10. Backslide 3:41
11. Remain Undone 4:41
12. A New Life Called Gina 1:53
Код:
Exact Audio Copy V0.99 prebeta 5 from 4. May 2009
Отчёт EAC об извлечении, выполненном 29. января 2011, 19:52
Pierrepoint / The Being
Дисковод: PIONEER DVD-RW DVRTD10RS   Adapter: 1  ID: 0
Режим чтения                 : Достоверность
Использование точного потока : Да
Отключение кэша аудио        : Да
Использование указателей C2  : Нет
Коррекция смещения при чтении                     : 6
Способность читать области Lead-in и Lead-out     : Нет
Заполнение пропущенных сэмплов тишиной            : Да
Удаление блоков с тишиной в начале и конце        : Нет
При вычислениях CRC использовались нулевые сэмплы : Да
Интерфейс                                         : Встроенный Win32-интерфейс для Win NT/2000
Выходной формат : Внутренние WAV-операции
Формат сэмплов  : 44.100 Гц; 16 бит; стерео
TOC извлечённого CD
     Трек |   Старт  | Длительность | Начальный сектор | Конечный сектор
    ---------------------------------------------------------------------
       1  |  0:00.00 |    5:17.60   |           0      |      23834
       2  |  5:17.60 |    4:35.74   |       23835      |      44533
       3  |  9:53.59 |    2:42.44   |       44534      |      56727
       4  | 12:36.28 |    3:49.35   |       56728      |      73937
       5  | 16:25.63 |    5:04.52   |       73938      |      96789
       6  | 21:30.40 |    3:34.23   |       96790      |     112862
       7  | 25:04.63 |    4:01.35   |      112863      |     130972
       8  | 29:06.23 |    3:49.72   |      130973      |     148219
       9  | 32:56.20 |    1:57.00   |      148220      |     156994
      10  | 34:53.20 |    3:41.19   |      156995      |     173588
      11  | 38:34.39 |    4:41.37   |      173589      |     194700
      12  | 43:16.01 |    1:53.51   |      194701      |     203226
Характеристики диапазона извлечения и сообщения об ошибках
Выбранный диапазон
     Имя файла C:\Раздачи DEHUMANOID\Pierrepoint - The Being\Pierrepoint - The Being.wav
     Пиковый уровень 100.0 %
     Качество диапазона 100 %
     CRC теста 7284DA49
     CRC копии 7284DA49
     Копирование... OK
Ошибок не произошло
AccurateRip: сводка
Трек  1  точное извлечение (доверие 1)  [588120D7]
Трек  2  точное извлечение (доверие 1)  [F70D4BBD]
Трек  3  точное извлечение (доверие 1)  [5D6D3BC4]
Трек  4  нет в базе данных
Трек  5  точное извлечение (доверие 1)  [ACAFD796]
Трек  6  точное извлечение (доверие 1)  [0AA9F0C0]
Трек  7  точное извлечение (доверие 1)  [DD20EDD4]
Трек  8  точное извлечение (доверие 1)  [AFD82CA1]
Трек  9  точное извлечение (доверие 1)  [A74EB58B]
Трек 10  точное извлечение (доверие 1)  [6E60AB93]
Трек 11  точное извлечение (доверие 1)  [EE966B73]
Трек 12  точное извлечение (доверие 1)  [EE148B76]
11 трек(и) скопированы точно
 1 трек(и) не содержатся в базе AccurateRip
Некоторые треки не прошли проверку на точность
Конец отчёта
Код:
Started at: суббота, 29. 01. 2011. - 23:19.27
1 file found
1 -===- D:\Раздачи DEHUMANOID\Pierrepoint - The Being\Pierrepoint - The Being.flac
  Extracted successfully
  Conclusion: this track is CDDA with probability 99%
  Tempfile successfully deleted.
Finished at: суббота, 29. 01. 2011. - 23:24.26 (operation time: 0:04.58)
Правила, инструкции, FAQ!!!
Торрент  Добавлен [26 июн 2020, 17:55] Скачать торрент Магнет ссылка
Скачать торрент
[ Размер 14.56 КБ / Просмотров 8 ]

Статус
Проверен 
 
Размер  351.14 МБ
Приватный: Нет (DHT включён)
.torrent скачан  0
 


     Отправить личное сообщение
   
Страница 1 из 1
Показать сообщения за:  Поле сортировки  
Начать новую тему Ответить на тему


Сейчас этот форум просматривают: нет зарегистрированных пользователей и гости: 0


Вы не можете начинать темы
Вы не можете отвечать на сообщения
Вы не можете редактировать свои сообщения
Вы не можете удалять свои сообщения
Вы не можете добавлять вложения

Перейти:  
cron