Начать новую тему Ответить на тему
Статистика раздачи
Размер: 3.32 ГБ | Добавлен: 26 июн 2020, 17:07 | Скачали: 0
Сидеров: 0  [0 байт/сек]    Личеров: 0  [0 байт/сек]
Пред. тема | След. тема 

Автор
Сообщение

СообщениеДобавлено: 26 июн 2020, 17:07 

Ответить с цитатой 

Page 12 - Discography (4 CD + 3 Singles & EPs)





Жанр: EBM, Industrial
Страна: Germany
Год издания: 1993 - 1999
Аудиокодек: FLAC (*.flac)
Тип рипа: image+.cue
Битрейт аудио: lossless
Продолжительность: 05:27:40
Источник (релизер): Собственный рип
Наличие сканов в содержимом раздачи: да
Лейбл: Celtic Circle Productions
Страна-производитель диска: Germany
Продолжительность: 01:07:32
01. A Case Of Recurrence [02:35]
02. F.F.N. [05:10]
03. Torture [05:08]
04. My Shadown [04:40]
05. Change Of Plan [04:06]
06. Blast You Off [04:12]
07. You Never Know [04:48]
08. Threshold [05:46]
09. No Bitter Truth [02:57]
10. Merry X-Mas [03:45]
11. The Violence Of Truth [07:50]
12. Shizo World [05:35]
13. Misanthrope [05:29]
14. Assembly At Last [05:00]
Код:
Exact Audio Copy V0.99 prebeta 4 from 23. January 2008
Отчёт EAC об извлечении, выполненном 15. января 2009, 19:53
Page 12 / The Violence of Truth
Дисковод: PIONEER DVD-RW  DVR-215   Adapter: 2  ID: 1
Режим чтения                 : Достоверность
Использование точного потока : Да
Отключение кэша аудио        : Да
Использование указателей C2  : Нет
Коррекция смещения при чтении                     : 48
Способность читать области Lead-in и Lead-out     : Нет
Заполнение пропущенных сэмплов тишиной            : Да
Удаление блоков с тишиной в начале и конце        : Нет
При вычислениях CRC использовались нулевые сэмплы : Да
Интерфейс                                         : Встроенный Win32-интерфейс для Win NT/2000
Выходной формат          : Пользовательский кодировщик
Выбранный битрейт        : 1024 kBit/s
Качество                 : Высокий
Добавление ID3-тэга      : Нет
Утилита сжатия           : C:\Program Files\Exact Audio Copy\FLAC\FLAC.EXE
Дополнительные параметры : -8 -V -T "ARTIST=%a" -T "TITLE=%t" -T "ALBUM=%g" -T "DATE=%y" -T "TRACKNUMBER=%n" -T "GENRE=%m" -T "COMMENT=%e" %s -o %d
TOC извлечённого CD
     Трек |   Старт  | Длительность | Начальный сектор | Конечный сектор
    ---------------------------------------------------------------------
       1  |  0:00.00 |    2:37.55   |           0      |      11829
       2  |  2:37.55 |    5:13.25   |       11830      |      35329
       3  |  7:51.05 |    5:08.58   |       35330      |      58487
       4  | 12:59.63 |    4:41.17   |       58488      |      79579
       5  | 17:41.05 |    4:09.15   |       79580      |      98269
       6  | 21:50.20 |    4:14.60   |       98270      |     117379
       7  | 26:05.05 |    4:50.03   |      117380      |     139132
       8  | 30:55.08 |    5:48.47   |      139133      |     165279
       9  | 36:43.55 |    2:59.50   |      165280      |     178754
      10  | 39:43.30 |    3:46.08   |      178755      |     195712
      11  | 43:29.38 |    7:52.25   |      195713      |     231137
      12  | 51:21.63 |    5:37.50   |      231138      |     256462
      13  | 56:59.38 |    5:33.27   |      256463      |     281464
      14  | 62:32.65 |    4:59.50   |      281465      |     303939
Характеристики диапазона извлечения и сообщения об ошибках
Выбранный диапазон
     Имя файла F:\- MUSIC\INDUSTRIAL\PAGE 12 - The Violence of Truth\Page 12 - The Violence of Truth.wav
     Пиковый уровень 99.8 %
     Качество диапазона 100.0 %
     CRC теста B72017E5
     CRC копии B72017E5
     Копирование... OK
Ошибок не произошло
Конец отчёта 
Код:
REM GENRE Darkwave
REM DATE 1993
REM DISCID B80FD40E
REM COMMENT "ExactAudioCopy v0.99pb4"
PERFORMER "Page 12"
TITLE "The Violence of Truth"
FILE "Page 12 - The Violence of Truth.flac" WAVE
  TRACK 01 AUDIO
    TITLE "A Case of Recussence"
    PERFORMER "Page 12"
    INDEX 01 00:00:00
  TRACK 02 AUDIO
    TITLE "F.F.N"
    PERFORMER "Page 12"
    INDEX 00 02:34:71
    INDEX 01 02:37:55
  TRACK 03 AUDIO
    TITLE "Torture"
    PERFORMER "Page 12"
    INDEX 00 07:47:49
    INDEX 01 07:51:05
  TRACK 04 AUDIO
    TITLE "My Shadow"
    PERFORMER "Page 12"
    INDEX 00 12:57:56
    INDEX 01 12:59:63
  TRACK 05 AUDIO
    TITLE "Change of Plan"
    PERFORMER "Page 12"
    INDEX 00 17:38:29
    INDEX 01 17:41:05
  TRACK 06 AUDIO
    TITLE "Blast you off"
    PERFORMER "Page 12"
    INDEX 00 21:47:28
    INDEX 01 21:50:20
  TRACK 07 AUDIO
    TITLE "You never know"
    PERFORMER "Page 12"
    INDEX 00 26:02:17
    INDEX 01 26:05:05
  TRACK 08 AUDIO
    TITLE "Threshold"
    PERFORMER "Page 12"
    INDEX 00 30:51:58
    INDEX 01 30:55:08
  TRACK 09 AUDIO
    TITLE "No bitter Truth"
    PERFORMER "Page 12"
    INDEX 00 36:40:40
    INDEX 01 36:43:55
  TRACK 10 AUDIO
    TITLE "Merry x-mas"
    PERFORMER "Page 12"
    INDEX 00 39:40:02
    INDEX 01 39:43:30
  TRACK 11 AUDIO
    TITLE "The Violence of Truth"
    PERFORMER "Page 12"
    INDEX 00 43:26:68
    INDEX 01 43:29:38
  TRACK 12 AUDIO
    TITLE "Shizo World"
    PERFORMER "Page 12"
    INDEX 00 51:18:48
    INDEX 01 51:21:63
  TRACK 13 AUDIO
    TITLE "Misanthrope"
    PERFORMER "Page 12"
    INDEX 00 56:56:36
    INDEX 01 56:59:38
  TRACK 14 AUDIO
    TITLE "Assembly at last"
    PERFORMER "Page 12"
    INDEX 00 62:30:25
    INDEX 01 62:32:65
 
Код:
 AUDIOCHECKER v2.0 beta (build 457) - by Dester - opdester@freemail.hu
~~~~~~~~~~~~~~~~~~~~~~~~~~~~~~~~~~
-=== DO NOT EDIT THIS FILE! ===-
Path: ...\PAGE 12 - The Violence of Truth
1 -=- Page 12 - The Violence of Truth.flac -=- CDDA (100%)
147274292
 
#777Лейбл: Celtic Circle Productions
Страна-производитель диска: Germany
Продолжительность: 00:46:32
01. Losing The Empire [05:43]
02. Sea On Fire [04:52]
03. Wish [04:29]
04. Bats And Skin [06:11]
05. Hold On [04:24]
06. Apathy [04:15]
07. Rapture [04:05]
08. Underworld [04:12]
09. Decline [04:21]
10. The Silence [03:38]
Код:
Exact Audio Copy V0.99 prebeta 4 from 23. January 2008
Отчёт EAC об извлечении, выполненном 13. мая 2009, 0:03
Page 12 / Revenge and More
Дисковод: PIONEER DVD-RW  DVR-215   Adapter: 3  ID: 0
Режим чтения                 : Достоверность
Использование точного потока : Да
Отключение кэша аудио        : Да
Использование указателей C2  : Нет
Коррекция смещения при чтении                     : 48
Способность читать области Lead-in и Lead-out     : Нет
Заполнение пропущенных сэмплов тишиной            : Да
Удаление блоков с тишиной в начале и конце        : Нет
При вычислениях CRC использовались нулевые сэмплы : Да
Интерфейс                                         : Встроенный Win32-интерфейс для Win NT/2000
Выходной формат          : Пользовательский кодировщик
Выбранный битрейт        : 1024 kBit/s
Качество                 : Высокий
Добавление ID3-тэга      : Нет
Утилита сжатия           : C:\Program Files\Exact Audio Copy\FLAC\FLAC.EXE
Дополнительные параметры : -8 -V -T "ARTIST=%a" -T "TITLE=%t" -T "ALBUM=%g" -T "DATE=%y" -T "TRACKNUMBER=%n" -T "GENRE=%m" -T "COMMENT=%e" %s -o %d
TOC извлечённого CD
     Трек |   Старт  | Длительность | Начальный сектор | Конечный сектор
    ---------------------------------------------------------------------
       1  |  0:00.00 |    5:45.21   |           0      |      25895
       2  |  5:45.21 |    4:54.08   |       25896      |      47953
       3  | 10:39.29 |    4:31.34   |       47954      |      68312
       4  | 15:10.63 |    6:13.71   |       68313      |      96358
       5  | 21:24.59 |    4:26.44   |       96359      |     116352
       6  | 25:51.28 |    4:18.00   |      116353      |     135702
       7  | 30:09.28 |    4:07.14   |      135703      |     154241
       8  | 34:16.42 |    4:14.03   |      154242      |     173294
       9  | 38:30.45 |    4:23.11   |      173295      |     193030
      10  | 42:53.56 |    3:38.65   |      193031      |     209445
Характеристики диапазона извлечения и сообщения об ошибках
Выбранный диапазон
     Имя файла G:\РАЗДАЧИ!!!! (torrents.ru)\Подготовка к раздаче!!!\PAGE 12 - Revenge and More\Page 12 - Revenge and More.wav
     Пиковый уровень 100.0 %
     Качество диапазона 100.0 %
     CRC теста 06CCF41D
     CRC копии 06CCF41D
     Копирование... OK
Ошибок не произошло
AccurateRip: сводка
Трек  1  точное извлечение (доверие 1)  [2FB88A84]
Трек  2  точное извлечение (доверие 1)  [FAC4A91E]
Трек  3  точное извлечение (доверие 1)  [02941AFA]
Трек  4  точное извлечение (доверие 1)  [7E64F453]
Трек  5  точное извлечение (доверие 1)  [D6FD43DC]
Трек  6  точное извлечение (доверие 1)  [949BC34A]
Трек  7  точное извлечение (доверие 1)  [D5DC36C5]
Трек  8  точное извлечение (доверие 1)  [1701511F]
Трек  9  точное извлечение (доверие 1)  [38322684]
Трек 10  точное извлечение (доверие 1)  [AE91B873]
Все треки извлечены точно
Конец отчёта
 
Код:
REM GENRE Darkwave
REM DATE 1995
REM DISCID 7B0AE80A
REM COMMENT "ExactAudioCopy v0.99pb4"
PERFORMER "Page 12"
TITLE "Revenge and More"
FILE "Page 12 - Revenge and More.flac" WAVE
  TRACK 01 AUDIO
    TITLE "Losing the Empire"
    PERFORMER "Page 12"
    INDEX 01 00:00:00
  TRACK 02 AUDIO
    TITLE "Sea on Fire"
    PERFORMER "Page 12"
    INDEX 00 05:43:22
    INDEX 01 05:45:21
  TRACK 03 AUDIO
    TITLE "Wish"
    PERFORMER "Page 12"
    INDEX 00 10:37:30
    INDEX 01 10:39:29
  TRACK 04 AUDIO
    TITLE "Bats and Skin"
    PERFORMER "Page 12"
    INDEX 00 15:08:64
    INDEX 01 15:10:63
  TRACK 05 AUDIO
    TITLE "Hold on"
    PERFORMER "Page 12"
    INDEX 00 21:22:61
    INDEX 01 21:24:59
  TRACK 06 AUDIO
    TITLE "Apathy"
    PERFORMER "Page 12"
    INDEX 00 25:49:29
    INDEX 01 25:51:28
  TRACK 07 AUDIO
    TITLE "Rapture"
    PERFORMER "Page 12"
    INDEX 00 30:07:31
    INDEX 01 30:09:28
  TRACK 08 AUDIO
    TITLE "Underworld"
    PERFORMER "Page 12"
    INDEX 00 34:14:43
    INDEX 01 34:16:42
  TRACK 09 AUDIO
    TITLE "Decline"
    PERFORMER "Page 12"
    INDEX 00 38:28:47
    INDEX 01 38:30:45
  TRACK 10 AUDIO
    TITLE "The Silence"
    PERFORMER "Page 12"
    INDEX 00 42:51:57
    INDEX 01 42:53:56
 
Код:
AUDIOCHECKER v2.0 beta (build 457) - by Dester - opdester@freemail.hu
~~~~~~~~~~~~~~~~~~~~~~~~~~~~~~~~~~
-=== DO NOT EDIT THIS FILE! ===-
Path: ...\PAGE 12 - Revenge and More
1 -=- Page 12 - Revenge and More.flac -=- CDDA (99%)
135322484
 
#777Лейбл: Celtic Circle Productions
Страна-производитель диска: Germany
Продолжительность: 00:45:55
01. Apathy (Rem 2.0) [04:18]
02. Neurotic [04:59]
03. Sea On Fire (AiboFlame-Mix) [04:43]
04. Closed Eyes [04:20]
05. Cradle Of Waste (Live Remix) [04:37]
06. No Bitter Truth (Live) [02:57]
07. Rapture (Live Edit) [04:31]
08. Decline (Live) [04:32]
09. Tale Of Suspicion [04:46]
10. Apathy (Manipulated) [05:58]
Код:
Exact Audio Copy V0.99 prebeta 5 from 4. May 2009
Отчёт EAC об извлечении, выполненном 9. июня 2011, 13:02
Page 12 / Inside Life
Дисковод: PIONEER DVD-RW  DVR-215   Adapter: 3  ID: 0
Режим чтения                 : Достоверность
Использование точного потока : Да
Отключение кэша аудио        : Да
Использование указателей C2  : Нет
Коррекция смещения при чтении                     : 48
Способность читать области Lead-in и Lead-out     : Нет
Заполнение пропущенных сэмплов тишиной            : Да
Удаление блоков с тишиной в начале и конце        : Нет
При вычислениях CRC использовались нулевые сэмплы : Да
Интерфейс                                         : Встроенный Win32-интерфейс для Win NT/2000
Выходной формат          : Пользовательский кодировщик
Выбранный битрейт        : 1024 kBit/s
Качество                 : Высокий
Добавление ID3-тэга      : Нет
Утилита сжатия           : C:\Program Files (x86)\Exact Audio Copy\FLAC\FLAC.EXE
Дополнительные параметры : -8 -V -T "ARTIST=%a" -T "TITLE=%t" -T "ALBUM=%g" -T "DATE=%y" -T "TRACKNUMBER=%n" -T "GENRE=%m" -T "COMMENT=%e" %s -o %d
TOC извлечённого CD
     Трек |   Старт  | Длительность | Начальный сектор | Конечный сектор
    ---------------------------------------------------------------------
       1  |  0:00.00 |    4:20.11   |           0      |      19510
       2  |  4:20.11 |    5:01.22   |       19511      |      42107
       3  |  9:21.33 |    4:45.71   |       42108      |      63553
       4  | 14:07.29 |    4:22.22   |       63554      |      83225
       5  | 18:29.51 |    4:37.06   |       83226      |     104006
       6  | 23:06.57 |    2:56.37   |      104007      |     117243
       7  | 26:03.19 |    4:30.60   |      117244      |     137553
       8  | 30:34.04 |    4:34.44   |      137554      |     158147
       9  | 35:08.48 |    4:48.09   |      158148      |     179756
      10  | 39:56.57 |    5:58.25   |      179757      |     206631
Характеристики диапазона извлечения и сообщения об ошибках
Выбранный диапазон
     Имя файла D:\РАЗДАЧИ!!!!\PAGE 12\Page 12 - Inside Life - 1996\Page 12 - Inside Life.wav
     Пиковый уровень 100.0 %
     Качество диапазона 100.0 %
     CRC теста A50130A0
     CRC копии A50130A0
     Копирование... OK
Ошибок не произошло
AccurateRip: сводка
Трек  1  нет в базе данных
Трек  2  нет в базе данных
Трек  3  нет в базе данных
Трек  4  нет в базе данных
Трек  5  нет в базе данных
Трек  6  нет в базе данных
Трек  7  нет в базе данных
Трек  8  нет в базе данных
Трек  9  нет в базе данных
Трек 10  нет в базе данных
Ни одного трека нет в базе AccurateRip
Конец отчёта
 
Код:
REM GENRE EBM
REM DATE 1996
REM DISCID 840AC30A
REM COMMENT "ExactAudioCopy v0.99pb5"
PERFORMER "Page 12"
TITLE "Inside Life"
FILE "Page 12 - Inside Life.flac" WAVE
  TRACK 01 AUDIO
    TITLE "Apathy (rem 2.0)"
    PERFORMER "Page 12"
    FLAGS DCP
    INDEX 01 00:00:00
  TRACK 02 AUDIO
    TITLE "Neurotic"
    PERFORMER "Page 12"
    FLAGS DCP
    INDEX 00 04:18:11
    INDEX 01 04:20:11
  TRACK 03 AUDIO
    TITLE "Sea on Fire (AiboFlame-Mix)"
    PERFORMER "Page 12"
    FLAGS DCP
    INDEX 00 09:19:33
    INDEX 01 09:21:33
  TRACK 04 AUDIO
    TITLE "Closed Eyes"
    PERFORMER "Page 12"
    FLAGS DCP
    INDEX 00 14:05:29
    INDEX 01 14:07:29
  TRACK 05 AUDIO
    TITLE "Cradle of Waste (Live Remix)"
    PERFORMER "Page 12"
    FLAGS DCP
    INDEX 00 18:27:51
    INDEX 01 18:29:51
  TRACK 06 AUDIO
    TITLE "No Bitter Truth (Live)"
    PERFORMER "Page 12"
    FLAGS DCP
    INDEX 01 23:06:57
  TRACK 07 AUDIO
    TITLE "Rapture (Live Edit)"
    PERFORMER "Page 12"
    FLAGS DCP
    INDEX 01 26:03:19
  TRACK 08 AUDIO
    TITLE "Decline (Live)"
    PERFORMER "Page 12"
    FLAGS DCP
    INDEX 01 30:34:04
  TRACK 09 AUDIO
    TITLE "Tape of Suspicion"
    PERFORMER "Page 12"
    FLAGS DCP
    INDEX 00 35:06:48
    INDEX 01 35:08:48
  TRACK 10 AUDIO
    TITLE "Apathy (Manipulated)"
    PERFORMER "Page 12"
    FLAGS DCP
    INDEX 00 39:54:57
    INDEX 01 39:56:57
 
Код:
AUDIOCHECKER v2.0 beta (build 457) - by Dester - opdester@freemail.hu
~~~~~~~~~~~~~~~~~~~~~~~~~~~~~~~~~~
-=== DO NOT EDIT THIS FILE! ===-
Path: ...\Page 12 - Inside Life - 1996
1 -=- Page 12 - Inside Life.flac -=- CDDA (100%)
18358612
 
#777Лейбл: Scanner
Страна-производитель диска: Germany
Продолжительность: 00:43:31
01. Object [01:35]
02. Vision [04:20]
03. Blinded [03:20]
04. Halo [03:58]
05. Tension Dream [05:15]
06. Sacrifice [03:27]
07. Pulse [05:23]
08. Cursing [05:18]
09. The Evidence [04:57]
10. Matter In Dispute [04:10]
11. Subject [01:49]
Код:
Exact Audio Copy V0.99 prebeta 4 from 23. January 2008
Отчёт EAC об извлечении, выполненном 27. апреля 2009, 20:24
Page 12 / Soul Dungeon
Дисковод: PIONEER DVD-RW  DVR-215   Adapter: 2  ID: 0
Режим чтения                 : Достоверность
Использование точного потока : Да
Отключение кэша аудио        : Да
Использование указателей C2  : Нет
Коррекция смещения при чтении                     : 48
Способность читать области Lead-in и Lead-out     : Нет
Заполнение пропущенных сэмплов тишиной            : Да
Удаление блоков с тишиной в начале и конце        : Нет
При вычислениях CRC использовались нулевые сэмплы : Да
Интерфейс                                         : Встроенный Win32-интерфейс для Win NT/2000
Выходной формат          : Пользовательский кодировщик
Выбранный битрейт        : 1024 kBit/s
Качество                 : Высокий
Добавление ID3-тэга      : Нет
Утилита сжатия           : C:\Program Files\Exact Audio Copy\FLAC\FLAC.EXE
Дополнительные параметры : -8 -V -T "ARTIST=%a" -T "TITLE=%t" -T "ALBUM=%g" -T "DATE=%y" -T "TRACKNUMBER=%n" -T "GENRE=%m" -T "COMMENT=%e" %s -o %d
TOC извлечённого CD
     Трек |   Старт  | Длительность | Начальный сектор | Конечный сектор
    ---------------------------------------------------------------------
       1  |  0:00.00 |    1:34.44   |           0      |       7093
       2  |  1:34.44 |    4:19.69   |        7094      |      26587
       3  |  5:54.38 |    3:20.00   |       26588      |      41587
       4  |  9:14.38 |    3:57.44   |       41588      |      59406
       5  | 13:12.07 |    5:15.05   |       59407      |      83036
       6  | 18:27.12 |    3:26.60   |       83037      |      98546
       7  | 21:53.72 |    5:23.03   |       98547      |     122774
       8  | 27:17.00 |    5:18.01   |      122775      |     146625
       9  | 32:35.01 |    4:56.46   |      146626      |     168871
      10  | 37:31.47 |    4:10.10   |      168872      |     187631
      11  | 41:41.57 |    1:49.55   |      187632      |     195861
Характеристики диапазона извлечения и сообщения об ошибках
Выбранный диапазон
     Имя файла G:\РАЗДАЧИ!!!! (torrents.ru)\Подготовка к раздаче!!!\PAGE 12 - Soul Dungeon\Page 12 - Soul Dungeon.wav
     Пиковый уровень 100.0 %
     Качество диапазона 100.0 %
     CRC теста E43B2FAA
     CRC копии E43B2FAA
     Копирование... OK
Ошибок не произошло
AccurateRip: сводка
Трек  1  точное извлечение (доверие 1)  [BE8A12E9]
Трек  2  точное извлечение (доверие 1)  [64AE2CE0]
Трек  3  точное извлечение (доверие 1)  [966CDCA7]
Трек  4  точное извлечение (доверие 1)  [B3187538]
Трек  5  точное извлечение (доверие 1)  [CE0ADB0D]
Трек  6  точное извлечение (доверие 1)  [40541A4C]
Трек  7  точное извлечение (доверие 1)  [7D9AB449]
Трек  8  точное извлечение (доверие 1)  [2F4D9C1C]
Трек  9  точное извлечение (доверие 1)  [498514E6]
Трек 10  точное извлечение (доверие 1)  [E2850BB2]
Трек 11  точное извлечение (доверие 1)  [6B3759A4]
Все треки извлечены точно
Конец отчёта
 
Код:
REM GENRE Humour
REM DISCID 970A330B
REM COMMENT "ExactAudioCopy v0.99pb4"
PERFORMER "Page 12"
TITLE "Soul Dungeon"
FILE "Page 12 - Soul Dungeon.flac" WAVE
  TRACK 01 AUDIO
    TITLE "Object"
    PERFORMER "Page 12"
    INDEX 01 00:00:00
  TRACK 02 AUDIO
    TITLE "Vision"
    PERFORMER "Page 12"
    INDEX 01 01:34:44
  TRACK 03 AUDIO
    TITLE "Blinded"
    PERFORMER "Page 12"
    INDEX 01 05:54:38
  TRACK 04 AUDIO
    TITLE "Halo"
    PERFORMER "Page 12"
    INDEX 01 09:14:38
  TRACK 05 AUDIO
    TITLE "Tension Dream"
    PERFORMER "Page 12"
    INDEX 01 13:12:07
  TRACK 06 AUDIO
    TITLE "Sacrfice"
    PERFORMER "Page 12"
    INDEX 01 18:27:12
  TRACK 07 AUDIO
    TITLE "Pulse"
    PERFORMER "Page 12"
    INDEX 01 21:53:72
  TRACK 08 AUDIO
    TITLE "Cursing"
    PERFORMER "Page 12"
    INDEX 01 27:17:00
  TRACK 09 AUDIO
    TITLE "The Evidence"
    PERFORMER "Page 12"
    INDEX 01 32:35:01
  TRACK 10 AUDIO
    TITLE "Matter In Dispute"
    PERFORMER "Page 12"
    INDEX 01 37:31:47
  TRACK 11 AUDIO
    TITLE "Subject"
    PERFORMER "Page 12"
    INDEX 01 41:41:57
 
Код:
AUDIOCHECKER v2.0 beta (build 457) - by Dester - opdester@freemail.hu
~~~~~~~~~~~~~~~~~~~~~~~~~~~~~~~~~~
-=== DO NOT EDIT THIS FILE! ===-
Path: ...\PAGE 12 - Soul Dungeon
1 -=- Page 12 - Soul Dungeon.flac -=- CDDA (100%)
116608436
 
#777Лейбл: Celtic Circle Productions
Страна-производитель диска: Germany
Продолжительность: 00:18:50
01. Cradle Of Waste [04:42]
02. No Recall [03:58]
03. inSECT [01:52]
04. Blue Monday [04:39]
05. Artificial Future [03:37]
Код:
Exact Audio Copy V0.99 prebeta 4 from 23. January 2008
Отчёт EAC об извлечении, выполненном 15. января 2009, 20:09
Page 12 / inSECT
Дисковод: PIONEER DVD-RW  DVR-215   Adapter: 2  ID: 1
Режим чтения                 : Достоверность
Использование точного потока : Да
Отключение кэша аудио        : Да
Использование указателей C2  : Нет
Коррекция смещения при чтении                     : 48
Способность читать области Lead-in и Lead-out     : Нет
Заполнение пропущенных сэмплов тишиной            : Да
Удаление блоков с тишиной в начале и конце        : Нет
При вычислениях CRC использовались нулевые сэмплы : Да
Интерфейс                                         : Встроенный Win32-интерфейс для Win NT/2000
Выходной формат          : Пользовательский кодировщик
Выбранный битрейт        : 1024 kBit/s
Качество                 : Высокий
Добавление ID3-тэга      : Нет
Утилита сжатия           : C:\Program Files\Exact Audio Copy\FLAC\FLAC.EXE
Дополнительные параметры : -8 -V -T "ARTIST=%a" -T "TITLE=%t" -T "ALBUM=%g" -T "DATE=%y" -T "TRACKNUMBER=%n" -T "GENRE=%m" -T "COMMENT=%e" %s -o %d
TOC извлечённого CD
     Трек |   Старт  | Длительность | Начальный сектор | Конечный сектор
    ---------------------------------------------------------------------
       1  |  0:00.30 |    4:42.10   |          30      |      21189
       2  |  4:42.40 |    3:58.65   |       21190      |      39104
       3  |  8:41.30 |    1:52.28   |       39105      |      47532
       4  | 10:33.58 |    4:39.03   |       47533      |      68460
       5  | 15:12.61 |    3:37.74   |       68461      |      84809
Характеристики диапазона извлечения и сообщения об ошибках
Выбранный диапазон
     Имя файла F:\- MUSIC\INDUSTRIAL\PAGE 12 - inSECT\Page 12 - inSECT.wav
     Пиковый уровень 100.0 %
     Качество диапазона 100.0 %
     CRC теста AEAD1146
     CRC копии AEAD1146
     Копирование... OK
Ошибок не произошло
Конец отчёта
 
Код:
 REM GENRE Darkwave
REM DATE 1994
REM DISCID 36046A05
REM COMMENT "ExactAudioCopy v0.99pb4"
PERFORMER "Page 12"
TITLE "inSECT"
FILE "Page 12 - inSECT.flac" WAVE
  TRACK 01 AUDIO
    TITLE "Cradle Of Waste"
    PERFORMER "Page 12"
    INDEX 00 00:00:00
    INDEX 01 00:00:30
  TRACK 02 AUDIO
    TITLE "No Recall"
    PERFORMER "Page 12"
    INDEX 00 04:42:37
    INDEX 01 04:42:40
  TRACK 03 AUDIO
    TITLE "inSECT"
    PERFORMER "Page 12"
    INDEX 00 08:41:23
    INDEX 01 08:41:30
  TRACK 04 AUDIO
    TITLE "Blue Monday"
    PERFORMER "Page 12"
    INDEX 00 10:33:57
    INDEX 01 10:33:58
  TRACK 05 AUDIO
    TITLE "Artificial Future"
    PERFORMER "Page 12"
    INDEX 01 15:12:61
 
Код:
 AUDIOCHECKER v2.0 beta (build 457) - by Dester - opdester@freemail.hu
~~~~~~~~~~~~~~~~~~~~~~~~~~~~~~~~~~
-=== DO NOT EDIT THIS FILE! ===-
Path: ...\PAGE 12 - inSECT
1 -=- Page 12 - inSECT.flac -=- CDDA (100%)
36036052
 
#777Лейбл: Celtic Circle Productions
Страна-производитель диска: Germany
Продолжительность: 00:35:31
01. Decline (Extended) [07:08]
02. Misanthrope (Licker-Mix) [04:52]
03. Shizo World (Our-Time-Remix) [07:36]
04. Driven Out [04:52]
05. Threshold (Symphonic-Mix) [06:18]
06. Decline (Album-Version) [04:21]
Код:
Exact Audio Copy V0.99 prebeta 4 from 23. January 2008
Отчёт EAC об извлечении, выполненном 31. января 2010, 15:04
Page 12 / Decline (Maxi-Single)
Дисковод: PIONEER DVD-RW  DVR-215   Adapter: 2  ID: 0
Режим чтения                 : Достоверность
Использование точного потока : Да
Отключение кэша аудио        : Да
Использование указателей C2  : Нет
Коррекция смещения при чтении                     : 48
Способность читать области Lead-in и Lead-out     : Нет
Заполнение пропущенных сэмплов тишиной            : Да
Удаление блоков с тишиной в начале и конце        : Нет
При вычислениях CRC использовались нулевые сэмплы : Да
Интерфейс                                         : Встроенный Win32-интерфейс для Win NT/2000
Выходной формат          : Пользовательский кодировщик
Выбранный битрейт        : 1024 kBit/s
Качество                 : Высокий
Добавление ID3-тэга      : Нет
Утилита сжатия           : C:\Program Files\Exact Audio Copy\FLAC\FLAC.EXE
Дополнительные параметры : -8 -V -T "ARTIST=%a" -T "TITLE=%t" -T "ALBUM=%g" -T "DATE=%y" -T "TRACKNUMBER=%n" -T "GENRE=%m" -T "COMMENT=%e" %s -o %d
TOC извлечённого CD
     Трек |   Старт  | Длительность | Начальный сектор | Конечный сектор
    ---------------------------------------------------------------------
       1  |  0:00.00 |    7:13.52   |           0      |      32526
       2  |  7:13.52 |    4:56.12   |       32527      |      54738
       3  | 12:09.64 |    7:40.29   |       54739      |      89267
       4  | 19:50.18 |    4:55.56   |       89268      |     111448
       5  | 24:45.74 |    6:22.38   |      111449      |     140136
       6  | 31:08.37 |    4:22.48   |      140137      |     159834
Характеристики диапазона извлечения и сообщения об ошибках
Выбранный диапазон
     Имя файла G:\РАЗДАЧИ!!!!\PAGE 12 - Decline (Maxi-Single)\Новая папка\Page 12 - Decline (Maxi-Single).wav
     Пиковый уровень 100.0 %
     Качество диапазона 100.0 %
     CRC теста A8870F85
     CRC копии A8870F85
     Копирование... OK
Ошибок не произошло
Конец отчёта
 
Код:
REM GENRE Electronic
REM DATE 1995
REM DISCID 4A085306
REM COMMENT "ExactAudioCopy v0.99pb4"
PERFORMER "Page 12"
TITLE "Decline (Maxi-Single)"
FILE "Page 12 - Decline (Maxi-Single).flac" WAVE
  TRACK 01 AUDIO
    TITLE "Decline (Extended)"
    PERFORMER "Page 12"
    INDEX 01 00:00:00
  TRACK 02 AUDIO
    TITLE "Misanthrope (Licker-Mix)"
    PERFORMER "Page 12"
    INDEX 00 07:13:49
    INDEX 01 07:13:52
  TRACK 03 AUDIO
    TITLE "Shizo World (Our-Time-Remix)"
    PERFORMER "Page 12"
    INDEX 00 12:09:62
    INDEX 01 12:09:64
  TRACK 04 AUDIO
    TITLE "Driven Out"
    PERFORMER "Page 12"
    INDEX 00 19:50:15
    INDEX 01 19:50:18
  TRACK 05 AUDIO
    TITLE "Threshold (Symphonic-Mix)"
    PERFORMER "Page 12"
    INDEX 00 24:45:71
    INDEX 01 24:45:74
  TRACK 06 AUDIO
    TITLE "Decline (Album-Version)"
    PERFORMER "Page 12"
    INDEX 00 31:08:34
    INDEX 01 31:08:37
 
Код:
 AUDIOCHECKER v2.0 beta (build 457) - by Dester - opdester@freemail.hu
~~~~~~~~~~~~~~~~~~~~~~~~~~~~~~~~~~
-=== DO NOT EDIT THIS FILE! ===-
Path: ...\Новая папка
1 -=- Page 12 - Decline (Maxi-Single).flac -=- CDDA (99%)
48666980
 
#777Лейбл: Celtic Circle Productions
Страна-производитель диска: Germany
Продолжительность: 00:22:49
01. Blinded (Longer) [05:15]
02. Sea On Fire (Remix) [04:38]
03. Cursing (Master) [05:20]
04. Rapture (Remix) [03:55]
05. Blinded (Shorter) [02:18]
06. Engel (On Returning) [01:23 ]
Limited edition of 1000 numbered copies.
Код:
Exact Audio Copy V0.99 prebeta 4 from 23. January 2008
Отчёт EAC об извлечении, выполненном 10. декабря 2010, 21:35
Page 12  / On returning (Maxi-Single)
Дисковод: PIONEER DVD-RW  DVR-212   Adapter: 3  ID: 1
Режим чтения                 : Достоверность
Использование точного потока : Да
Отключение кэша аудио        : Да
Использование указателей C2  : Нет
Коррекция смещения при чтении                     : 48
Способность читать области Lead-in и Lead-out     : Нет
Заполнение пропущенных сэмплов тишиной            : Да
Удаление блоков с тишиной в начале и конце        : Нет
При вычислениях CRC использовались нулевые сэмплы : Да
Интерфейс                                         : Встроенный Win32-интерфейс для Win NT/2000
Выходной формат          : Пользовательский кодировщик
Выбранный битрейт        : 1024 kBit/s
Качество                 : Высокий
Добавление ID3-тэга      : Нет
Утилита сжатия           : C:\Program Files (x86)\Exact Audio Copy\FLAC\FLAC.EXE
Дополнительные параметры : -8 -V -T "ARTIST=%a" -T "TITLE=%t" -T "ALBUM=%g" -T "DATE=%y" -T "TRACKNUMBER=%n" -T "GENRE=%m" -T "COMMENT=%e" %s -o %d
TOC извлечённого CD
     Трек |   Старт  | Длительность | Начальный сектор | Конечный сектор
    ---------------------------------------------------------------------
       1  |  0:00.00 |    5:14.72   |           0      |      23621
       2  |  5:14.72 |    4:38.03   |       23622      |      44474
       3  |  9:53.00 |    5:20.23   |       44475      |      68497
       4  | 15:13.23 |    3:54.42   |       68498      |      86089
       5  | 19:07.65 |    2:18.20   |       86090      |      96459
       6  | 21:26.10 |    1:23.10   |       96460      |     102694
Характеристики диапазона извлечения и сообщения об ошибках
Выбранный диапазон
     Имя файла D:\РАЗДАЧИ!!!!\PAGE 12\Page 12 - On Returning (Maxi-Single) - 1997\Page 12  - On returning (Maxi-Single).wav
     Пиковый уровень 97.3 %
     Качество диапазона 100.0 %
     CRC теста FB79296A
     CRC копии FB79296A
     Копирование... OK
Ошибок не произошло
AccurateRip: сводка
Трек  1  нет в базе данных
Трек  2  нет в базе данных
Трек  3  нет в базе данных
Трек  4  нет в базе данных
Трек  5  нет в базе данных
Трек  6  нет в базе данных
Ни одного трека нет в базе AccurateRip
Конец отчёта
 
Код:
REM GENRE Electronic
REM DATE 1997
REM DISCID 50055906
REM COMMENT "ExactAudioCopy v0.99pb4"
PERFORMER "Page 12 "
TITLE "On returning (Maxi-Single)"
FILE "Page 12  - On returning (Maxi-Single).flac" WAVE
  TRACK 01 AUDIO
    TITLE "Blinded (Longer) "
    PERFORMER "Page 12 "
    INDEX 01 00:00:00
  TRACK 02 AUDIO
    TITLE "Sea On Fire (Remix) "
    PERFORMER "Page 12 "
    INDEX 01 05:14:72
  TRACK 03 AUDIO
    TITLE "Cursing (Master) "
    PERFORMER "Page 12 "
    INDEX 01 09:53:00
  TRACK 04 AUDIO
    TITLE "Rapture (Remix) "
    PERFORMER "Page 12 "
    INDEX 00 15:13:10
    INDEX 01 15:13:23
  TRACK 05 AUDIO
    TITLE "Blinded (Shorter) "
    PERFORMER "Page 12 "
    INDEX 01 19:07:65
  TRACK 06 AUDIO
    TITLE "Engel (On Returning) "
    PERFORMER "Page 12 "
    INDEX 00 21:25:70
    INDEX 01 21:26:10
 
Код:
AUDIOCHECKER v2.0 beta (build 457) - by Dester - opdester@freemail.hu
~~~~~~~~~~~~~~~~~~~~~~~~~~~~~~~~~~
-=== DO NOT EDIT THIS FILE! ===-
Path: ...\Page 12 - On Returning (Maxi-Single) - 1997
1 -=- Page 12  - On returning (Maxi-Single).flac -=- CDDA (100%)
174135268
 
В данном релизе, предоставлен медио файл под названием: "track 01 only contains data-material !" На диске папка: CDPLUS. Это информация о группе: творчество, дискография, фото, аудио, видео. Качество конечно , желает лучшего. И
нет смысла указывать какие либо медио данные по аудио и видео. Всё и так сжато до невозможности. Что теперь сделаешь, таков выпуск. И это всё что есть.
Проект Page 12 уже давно покинул музыкальный небосвод, но память о нем еще живет у поклонников стиля dark electro.
То было счастливое время, когда его адепты еще не стали приукрашивать свою музыку танцевальными побрякушками,
и обращали большее внимание на мелодии и аранжировки, чем сейчас.
На начало 90-х как пришелся период расцвета лейбла Celtic Circle, как раз специализировавшегося на dark electro и давшего путевки в жизнь немалому количеству интересных альбомов, стоявших у истоков стиля. Одним из их подписчиков значился Page 12, созданный в 1990-м и быстро завоевавший статус культового (как ни противно это слово сейчас, десятилетие назад оно что-то значило) разработчика канонов dark electro.
Page 12 выпустили: 4 Audio Cassette, 4 CD Albums , 2 Videos Cassette и 3 Singles & EPs.
К сожалению, Soul Dungeon (1999), последний альбом этой прекрасной команды!!!!
Правила, инструкции, FAQ!!!
Торрент  Добавлен [26 июн 2020, 17:07] Скачать торрент Магнет ссылка
Скачать торрент
[ Размер 32.98 КБ / Просмотров 4 ]

Статус
Проверен 
 
Размер  3.32 ГБ
Приватный: Нет (DHT включён)
.torrent скачан  0
 


     Отправить личное сообщение
   
Страница 1 из 1
Показать сообщения за:  Поле сортировки  
Начать новую тему Ответить на тему


Сейчас этот форум просматривают: нет зарегистрированных пользователей и гости: 0


Вы не можете начинать темы
Вы не можете отвечать на сообщения
Вы не можете редактировать свои сообщения
Вы не можете удалять свои сообщения
Вы не можете добавлять вложения

Перейти:  
cron