Начать новую тему Ответить на тему
Статистика раздачи
Размер: 429.99 МБ | Добавлен: 26 июн 2020, 17:49 | Скачали: 0
Сидеров: 1  [0 байт/сек]    Личеров: 0  [0 байт/сек]
Пред. тема | След. тема 

Автор
Сообщение

СообщениеДобавлено: 26 июн 2020, 17:49 

Ответить с цитатой 

Obszön Geschöpf / Yell Of Fright
Жанр: EBM, Industrial
Страна-производитель диска: France
Год издания диска: 2003
Издатель (лейбл): La Chambre Froide
Номер по каталогу: LCF002
Страна: France
Аудио кодек: FLAC (*.flac)
Тип рипа: image+.cue
Битрейт аудио: lossless
Продолжительность: 1:05:08.19
Источник (релизер): CD из личной коллекции.
Наличие сканов в содержимом раздачи: нет
Треклист:
01. Intro 1:20
02. New Church 4:11
03. Bite From The Grave 4:27
04. Price Of Delight 4:49
05. Cold Sweat 5:50
06. Yell Of Fright 5:09
07. To Return 4:41
08. New Life 5:04
09. Godless Society 5:01
10. Into The Dark 5:18
11. World Of Sin 6:50
12. I'm Pain 7:18
13. Sin Of The Flesh 5:10
Код:
Exact Audio Copy V0.99 prebeta 5 from 4. May 2009
Отчёт EAC об извлечении, выполненном 20. октября 2010, 15:14
Obszon Geschopf / Yell Of Fright
Дисковод: TSSTcorpCDDVDW TS-L632H   Adapter: 0  ID: 0
Режим чтения                 : Достоверность
Использование точного потока : Да
Отключение кэша аудио        : Да
Использование указателей C2  : Нет
Коррекция смещения при чтении                     : 6
Способность читать области Lead-in и Lead-out     : Нет
Заполнение пропущенных сэмплов тишиной            : Да
Удаление блоков с тишиной в начале и конце        : Нет
При вычислениях CRC использовались нулевые сэмплы : Да
Интерфейс                                         : Встроенный Win32-интерфейс для Win NT/2000
Выходной формат          : Пользовательский кодировщик
Выбранный битрейт        : 1024 kBit/s
Качество                 : Высокий
Добавление ID3-тэга      : Нет
Утилита сжатия           : C:\Program Files\Exact Audio Copy\FLAC\FLAC.EXE
Дополнительные параметры : -6 -V -T "ARTIST=%a" -T "TITLE=%t" -T "ALBUM=%g" -T "DATE=%y" -T "TRACKNUMBER=%n" -T "GENRE=%m" -T "COMMENT=%e" %s -o %d
TOC извлечённого CD
     Трек |   Старт  | Длительность | Начальный сектор | Конечный сектор
    ---------------------------------------------------------------------
       1  |  0:00.00 |    1:20.01   |           0      |       6000
       2  |  1:20.01 |    4:11.01   |        6001      |      24826
       3  |  5:31.02 |    4:27.01   |       24827      |      44852
       4  |  9:58.03 |    4:49.01   |       44853      |      66528
       5  | 14:47.04 |    5:50.01   |       66529      |      92779
       6  | 20:37.05 |    5:09.01   |       92780      |     115955
       7  | 25:46.06 |    4:41.01   |      115956      |     137031
       8  | 30:27.07 |    5:04.00   |      137032      |     159831
       9  | 35:31.07 |    5:01.09   |      159832      |     182415
      10  | 40:32.16 |    5:18.00   |      182416      |     206265
      11  | 45:50.16 |    6:50.00   |      206266      |     237015
      12  | 52:40.16 |    7:18.02   |      237016      |     269867
      13  | 59:58.18 |    5:10.01   |      269868      |     293118
Характеристики диапазона извлечения и сообщения об ошибках
Выбранный диапазон
     Имя файла C:\Users\Алексей\Desktop\iPOD\Obszon Geschopf - Yell Of Fright.wav
     Пиковый уровень 100.0 %
     Качество диапазона 100.0 %
     CRC теста 13A4F384
     CRC копии 13A4F384
     Копирование... OK
Ошибок не произошло
AccurateRip: сводка
Трек  1  нет в базе данных
Трек  2  нет в базе данных
Трек  3  нет в базе данных
Трек  4  нет в базе данных
Трек  5  нет в базе данных
Трек  6  нет в базе данных
Трек  7  нет в базе данных
Трек  8  нет в базе данных
Трек  9  нет в базе данных
Трек 10  нет в базе данных
Трек 11  нет в базе данных
Трек 12  нет в базе данных
Трек 13  нет в базе данных
Ни одного трека нет в базе AccurateRip
Конец отчёта
Код:
REM GENRE Industrial
REM DATE 2003
REM DISCID A40F440D
REM COMMENT "ExactAudioCopy v0.99pb5"
PERFORMER "Obszon Geschopf"
TITLE "Yell Of Fright"
FILE "Obszon Geschopf - Yell Of Fright.flac" WAVE
  TRACK 01 AUDIO
    TITLE "Intro"
    PERFORMER "Obszon Geschopf"
    INDEX 01 00:00:00
  TRACK 02 AUDIO
    TITLE "New Church"
    PERFORMER "Obszon Geschopf"
    INDEX 00 01:18:01
    INDEX 01 01:20:01
  TRACK 03 AUDIO
    TITLE "Bite From The Grave"
    PERFORMER "Obszon Geschopf"
    INDEX 00 05:29:02
    INDEX 01 05:31:02
  TRACK 04 AUDIO
    TITLE "The Price Of Delight"
    PERFORMER "Obszon Geschopf"
    INDEX 00 09:56:03
    INDEX 01 09:58:03
  TRACK 05 AUDIO
    TITLE "Cold Sweat"
    PERFORMER "Obszon Geschopf"
    INDEX 00 14:45:04
    INDEX 01 14:47:04
  TRACK 06 AUDIO
    TITLE "Yell Of Fright"
    PERFORMER "Obszon Geschopf"
    INDEX 00 20:35:05
    INDEX 01 20:37:05
  TRACK 07 AUDIO
    TITLE "To Return"
    PERFORMER "Obszon Geschopf"
    INDEX 00 25:44:06
    INDEX 01 25:46:06
  TRACK 08 AUDIO
    TITLE "New Life"
    PERFORMER "Obszon Geschopf"
    INDEX 00 30:25:07
    INDEX 01 30:27:07
  TRACK 09 AUDIO
    TITLE "Godless Society"
    PERFORMER "Obszon Geschopf"
    INDEX 00 35:29:07
    INDEX 01 35:31:07
  TRACK 10 AUDIO
    TITLE "Into The Dark"
    PERFORMER "Obszon Geschopf"
    INDEX 00 40:30:16
    INDEX 01 40:32:16
  TRACK 11 AUDIO
    TITLE "The Wolrd Of Sin"
    PERFORMER "Obszon Geschopf"
    INDEX 00 45:48:16
    INDEX 01 45:50:16
  TRACK 12 AUDIO
    TITLE "I'm Pain"
    PERFORMER "Obszon Geschopf"
    INDEX 00 52:38:16
    INDEX 01 52:40:16
  TRACK 13 AUDIO
    TITLE "The Sin Of The Flesh"
    PERFORMER "Obszon Geschopf"
    INDEX 00 59:56:18
    INDEX 01 59:58:18
Код:
[url=https://fastpic.ru/view/5/2010/1021/d914db17fed4082bb1d7252f91de1f56.jpg.html][img]http://i5.fastpic.ru/thumb/2010/1021/56/d914db17fed4082bb1d7252f91de1f56.jpeg[/img][/url]
AUDIOCHECKER v2.0 beta (build 457) - by Dester - opdester@freemail.hu
~~~~~~~~~~~~~~~~~~~~~~~~~~~~~~~~~~
Начато: среда, 20. 10. 2010. - 19:11.21
Найдено файлов: 13
01 -===- трек 1 в приводе TSSTcorpCDDVDW TS-L632H
Трек успешно извлечён
Заключение: этот трек - CDDA с вероятностью 100%
Временный файл удалён.
02 -===- трек 2 в приводе TSSTcorpCDDVDW TS-L632H
Трек успешно извлечён
Заключение: этот трек - MPEG с вероятностью 95%
Временный файл удалён.
03 -===- трек 3 в приводе TSSTcorpCDDVDW TS-L632H
Трек успешно извлечён
Заключение: этот трек - MPEG с вероятностью 95%
Временный файл удалён.
04 -===- трек 4 в приводе TSSTcorpCDDVDW TS-L632H
Трек успешно извлечён
Заключение: этот трек - MPEG с вероятностью 100%
Временный файл удалён.
05 -===- трек 5 в приводе TSSTcorpCDDVDW TS-L632H
Трек успешно извлечён
Заключение: этот трек - MPEG с вероятностью 79%
Временный файл удалён.
06 -===- трек 6 в приводе TSSTcorpCDDVDW TS-L632H
Трек успешно извлечён
Заключение: этот трек - MPEG с вероятностью 99%
Временный файл удалён.
07 -===- трек 7 в приводе TSSTcorpCDDVDW TS-L632H
Трек успешно извлечён
Заключение: не удалось определить источник этого трека
Временный файл удалён.
08 -===- трек 8 в приводе TSSTcorpCDDVDW TS-L632H
Трек успешно извлечён
Заключение: этот трек - MPEG с вероятностью 95%
Временный файл удалён.
09 -===- трек 9 в приводе TSSTcorpCDDVDW TS-L632H
Трек успешно извлечён
Заключение: этот трек - MPEG с вероятностью 100%
Временный файл удалён.
10 -===- трек 10 в приводе TSSTcorpCDDVDW TS-L632H
Трек успешно извлечён
Заключение: этот трек - MPEG с вероятностью 100%
Временный файл удалён.
11 -===- трек 11 в приводе TSSTcorpCDDVDW TS-L632H
Трек успешно извлечён
Заключение: не удалось определить источник этого трека
Временный файл удалён.
12 -===- трек 12 в приводе TSSTcorpCDDVDW TS-L632H
Трек успешно извлечён
Заключение: этот трек - MPEG с вероятностью 98%
Временный файл удалён.
13 -===- трек 13 в приводе TSSTcorpCDDVDW TS-L632H
Трек успешно извлечён
Заключение: этот трек - MPEG с вероятностью 100%
Временный файл удалён.
Завершено: среда, 20. 10. 2010. - 19:28.25 (Время операции: 0:17.04)





Правила, инструкции, FAQ!!!
Торрент  Добавлен [26 июн 2020, 17:49] Скачать торрент Магнет ссылка
Скачать торрент
[ Размер 17.68 КБ / Просмотров 8 ]

Статус
Проверен 
 
Размер  429.99 МБ
Приватный: Нет (DHT включён)
.torrent скачан  0
 


     Отправить личное сообщение
   
Страница 1 из 1
Показать сообщения за:  Поле сортировки  
Начать новую тему Ответить на тему


Сейчас этот форум просматривают: нет зарегистрированных пользователей и гости: 0


Вы не можете начинать темы
Вы не можете отвечать на сообщения
Вы не можете редактировать свои сообщения
Вы не можете удалять свои сообщения
Вы не можете добавлять вложения

Перейти:  
cron