Начать новую тему Ответить на тему
Статистика раздачи
Размер: 492.38 МБ | Добавлен: 26 июн 2020, 17:08 | Скачали: 0
Сидеров: 0  [0 байт/сек]    Личеров: 0  [0 байт/сек]
Пред. тема | След. тема 

Автор
Сообщение

СообщениеДобавлено: 26 июн 2020, 17:08 

Ответить с цитатой 

Obszön Geschöpf / Son Of Evil
Жанр: EBM, Industrial
Страна-производитель диска: USA
Год издания диска: 2004
Издатель (лейбл): BLC Productions
Номер по каталогу: BLC 2004-004-011
Страна: France
Аудио кодек: FLAC (*.flac)
Тип рипа: image+.cue
Битрейт аудио: lossless
Продолжительность: 1:13:50.71
Источник (релизер): CD из личной коллекции.
Наличие сканов в содержимом раздачи: нет
Треклист:
01. Intro 0:36
02. Face Of Swine 4:38
03. Resist 5:20
04. Strip Of Flesh 6:49
05. No More Game 6:47
06. Entrails Of Hell 9:20
07. Fright Night 5:58
08. Disease 4:32
09. Hate And Despair 5:02
10. War 7:32
11. Dead Christ 5:50
12. Living Dead 4:40
13. Son Of Evil 6:40
Код:
Exact Audio Copy V0.99 prebeta 5 from 4. May 2009
Отчёт EAC об извлечении, выполненном 18. октября 2010, 20:04
Obszon Geschopf / Son of Evil
Дисковод: TSSTcorpCDDVDW TS-L632H   Adapter: 0  ID: 0
Режим чтения                 : Достоверность
Использование точного потока : Да
Отключение кэша аудио        : Да
Использование указателей C2  : Нет
Коррекция смещения при чтении                     : 6
Способность читать области Lead-in и Lead-out     : Нет
Заполнение пропущенных сэмплов тишиной            : Да
Удаление блоков с тишиной в начале и конце        : Нет
При вычислениях CRC использовались нулевые сэмплы : Да
Интерфейс                                         : Встроенный Win32-интерфейс для Win NT/2000
Выходной формат          : Пользовательский кодировщик
Выбранный битрейт        : 1024 kBit/s
Качество                 : Высокий
Добавление ID3-тэга      : Нет
Утилита сжатия           : C:\Program Files\Exact Audio Copy\FLAC\FLAC.EXE
Дополнительные параметры : -6 -V -T "ARTIST=%a" -T "TITLE=%t" -T "ALBUM=%g" -T "DATE=%y" -T "TRACKNUMBER=%n" -T "GENRE=%m" -T "COMMENT=%e" %s -o %d
TOC извлечённого CD
     Трек |   Старт  | Длительность | Начальный сектор | Конечный сектор
    ---------------------------------------------------------------------
       1  |  0:00.00 |    0:36.14   |           0      |       2713
       2  |  0:36.14 |    4:38.28   |        2714      |      23591
       3  |  5:14.42 |    5:20.35   |       23592      |      47626
       4  | 10:35.02 |    6:49.51   |       47627      |      78352
       5  | 17:24.53 |    6:47.21   |       78353      |     108898
       6  | 24:11.74 |    9:20.45   |      108899      |     150943
       7  | 33:32.44 |    5:58.46   |      150944      |     177839
       8  | 39:31.15 |    4:32.64   |      177840      |     198303
       9  | 44:04.04 |    5:02.60   |      198304      |     221013
      10  | 49:06.64 |    7:32.59   |      221014      |     254972
      11  | 56:39.48 |    5:50.11   |      254973      |     281233
      12  | 62:29.59 |    4:40.58   |      281234      |     302291
      13  | 67:10.42 |    6:40.29   |      302292      |     332320
Характеристики диапазона извлечения и сообщения об ошибках
Выбранный диапазон
     Имя файла C:\Users\Алексей\Desktop\iPOD\Obszon Geschopf - Son of Evil.wav
     Пиковый уровень 98.0 %
     Качество диапазона 100.0 %
     CRC теста 7E0B38FD
     CRC копии 7E0B38FD
     Копирование... OK
Ошибок не произошло
AccurateRip: сводка
Трек  1  нет в базе данных
Трек  2  нет в базе данных
Трек  3  нет в базе данных
Трек  4  нет в базе данных
Трек  5  нет в базе данных
Трек  6  нет в базе данных
Трек  7  нет в базе данных
Трек  8  нет в базе данных
Трек  9  нет в базе данных
Трек 10  нет в базе данных
Трек 11  нет в базе данных
Трек 12  нет в базе данных
Трек 13  нет в базе данных
Ни одного трека нет в базе AccurateRip
Конец отчёта
Код:
REM GENRE Industrial
REM DATE 2004
REM DISCID 9F114E0D
REM COMMENT "ExactAudioCopy v0.99pb5"
PERFORMER "Obszon Geschopf"
TITLE "Son of Evil"
FILE "Obszon Geschopf - Son of Evil.flac" WAVE
  TRACK 01 AUDIO
    TITLE "Intro"
    PERFORMER "Obszon Geschopf"
    FLAGS DCP
    INDEX 01 00:00:00
  TRACK 02 AUDIO
    TITLE "Face of Swine"
    PERFORMER "Obszon Geschopf"
    FLAGS DCP
    INDEX 01 00:36:14
  TRACK 03 AUDIO
    TITLE "Resist"
    PERFORMER "Obszon Geschopf"
    FLAGS DCP
    INDEX 01 05:14:42
  TRACK 04 AUDIO
    TITLE "Strip of Flesh"
    PERFORMER "Obszon Geschopf"
    FLAGS DCP
    INDEX 01 10:35:02
  TRACK 05 AUDIO
    TITLE "No More Game"
    PERFORMER "Obszon Geschopf"
    FLAGS DCP
    INDEX 01 17:24:53
  TRACK 06 AUDIO
    TITLE "Entrails of Hell"
    PERFORMER "Obszon Geschopf"
    FLAGS DCP
    INDEX 01 24:11:74
  TRACK 07 AUDIO
    TITLE "Fright Night"
    PERFORMER "Obszon Geschopf"
    FLAGS DCP
    INDEX 01 33:32:44
  TRACK 08 AUDIO
    TITLE "Disease"
    PERFORMER "Obszon Geschopf"
    FLAGS DCP
    INDEX 01 39:31:15
  TRACK 09 AUDIO
    TITLE "Hate and Despair"
    PERFORMER "Obszon Geschopf"
    FLAGS DCP
    INDEX 01 44:04:04
  TRACK 10 AUDIO
    TITLE "War"
    PERFORMER "Obszon Geschopf"
    FLAGS DCP
    INDEX 01 49:06:64
  TRACK 11 AUDIO
    TITLE "Dead Christ"
    PERFORMER "Obszon Geschopf"
    FLAGS DCP
    INDEX 01 56:39:48
  TRACK 12 AUDIO
    TITLE "Living Dead"
    PERFORMER "Obszon Geschopf"
    FLAGS DCP
    INDEX 01 62:29:59
  TRACK 13 AUDIO
    TITLE "Son of Evil"
    PERFORMER "Obszon Geschopf"
    FLAGS DCP
    INDEX 01 67:10:42
Код:
[url=https://fastpic.ru/view/5/2010/1020/23e789e500f0fec7cf2e779d4cced9cc.jpg.html][img]http://i5.fastpic.ru/thumb/2010/1020/cc/23e789e500f0fec7cf2e779d4cced9cc.jpeg[/img][/url]
AUDIOCHECKER v2.0 beta (build 457) - by Dester - opdester@freemail.hu
~~~~~~~~~~~~~~~~~~~~~~~~~~~~~~~~~~
Начато: среда, 20. 10. 2010. - 10:43.36
Найдено файлов: 13
01 -===- трек 1 в приводе TSSTcorpCDDVDW TS-L632H
Трек успешно извлечён
Заключение: этот трек - MPEG с вероятностью 95%
Временный файл удалён.
02 -===- трек 2 в приводе TSSTcorpCDDVDW TS-L632H
Трек успешно извлечён
Заключение: этот трек - MPEG с вероятностью 95%
Временный файл удалён.
03 -===- трек 3 в приводе TSSTcorpCDDVDW TS-L632H
Трек успешно извлечён
Заключение: этот трек - MPEG с вероятностью 95%
Временный файл удалён.
04 -===- трек 4 в приводе TSSTcorpCDDVDW TS-L632H
Трек успешно извлечён
Заключение: этот трек - MPEG с вероятностью 95%
Временный файл удалён.
05 -===- трек 5 в приводе TSSTcorpCDDVDW TS-L632H
Трек успешно извлечён
Заключение: этот трек - MPEG с вероятностью 95%
Временный файл удалён.
06 -===- трек 6 в приводе TSSTcorpCDDVDW TS-L632H
Трек успешно извлечён
Заключение: этот трек - MPEG с вероятностью 95%
Временный файл удалён.
07 -===- трек 7 в приводе TSSTcorpCDDVDW TS-L632H
Трек успешно извлечён
Заключение: этот трек - MPEG с вероятностью 95%
Временный файл удалён.
08 -===- трек 8 в приводе TSSTcorpCDDVDW TS-L632H
Трек успешно извлечён
Заключение: этот трек - MPEG с вероятностью 95%
Временный файл удалён.
09 -===- трек 9 в приводе TSSTcorpCDDVDW TS-L632H
Трек успешно извлечён
Заключение: этот трек - MPEG с вероятностью 95%
Временный файл удалён.
10 -===- трек 10 в приводе TSSTcorpCDDVDW TS-L632H
Трек успешно извлечён
Заключение: этот трек - MPEG с вероятностью 95%
Временный файл удалён.
11 -===- трек 11 в приводе TSSTcorpCDDVDW TS-L632H
Трек успешно извлечён
Заключение: этот трек - MPEG с вероятностью 95%
Временный файл удалён.
12 -===- трек 12 в приводе TSSTcorpCDDVDW TS-L632H
Трек успешно извлечён
Заключение: этот трек - MPEG с вероятностью 95%
Временный файл удалён.
13 -===- трек 13 в приводе TSSTcorpCDDVDW TS-L632H
Трек успешно извлечён
Заключение: этот трек - MPEG с вероятностью 95%
Временный файл удалён.
Завершено: среда, 20. 10. 2010. - 11:02.24 (Время операции: 0:18.47)





Правила, инструкции, FAQ!!!
Торрент  Добавлен [26 июн 2020, 17:08] Скачать торрент Магнет ссылка
Скачать торрент
[ Размер 20.09 КБ / Просмотров 5 ]

Статус
Проверен 
 
Размер  492.38 МБ
Приватный: Нет (DHT включён)
.torrent скачан  0
 


     Отправить личное сообщение
   
Страница 1 из 1
Показать сообщения за:  Поле сортировки  
Начать новую тему Ответить на тему


Сейчас этот форум просматривают: нет зарегистрированных пользователей и гости: 0


Вы не можете начинать темы
Вы не можете отвечать на сообщения
Вы не можете редактировать свои сообщения
Вы не можете удалять свои сообщения
Вы не можете добавлять вложения

Перейти:  
cron
cron