Начать новую тему Ответить на тему
Статистика раздачи
Размер: 993.8 МБ | Добавлен: 26 июн 2020, 17:11 | Скачали: 0
Сидеров: 0  [0 байт/сек]    Личеров: 0  [0 байт/сек]
Пред. тема | След. тема 

Автор
Сообщение

СообщениеДобавлено: 26 июн 2020, 17:11 

Ответить с цитатой 

Obszön Geschöpf / Erection Body Mutilated (Back From The Dead) 2CD
Жанр: EBM, Industrial
Страна-производитель диска: USA
Год издания диска: 2008
Издатель (лейбл): BLC Productions
Номер по каталогу: BLC 2008-03-33
Страна: France
Аудио кодек: FLAC (*.flac)
Тип рипа: image+.cue
Битрейт аудио: lossless
Продолжительность: 1:04:34.32 + 1:11:17.67
Источник (релизер): 2CD из личной коллекции.
Наличие сканов в содержимом раздачи: нет
Треклист:
Erection Body Mutilated
01. My First Piece Of Meat 4:30
02. Ogre Of Montana 5:29
03. Erection Body Mutilated 5:45
04. Bloodfeast 4:46
05. Goresex 5:32
06. Deranged 5:42
07. The Sex Beast 6:15
08. John Wayne Gacy 5:42
09. I'm Freak 5:00
10. The Love Butcher 5:58
11. Urge To Kill 5:15
12. Port Elizabeth Massacre 4:40
Erection Body Mutilated Remix CD
01. My First Piece Of Meat (Circus Of Dead Squirrels Remix) 5:33
02. Coffin Shop (Steril Remix) 4:47
03. Deranged (Heimataerde Remix) 4:51
04. The Love Butcher (Cyber Axis Remix) 4:53
05. My First Piece Of Meat (Joachim Witt Remix) 4:14
06. Erection Body Mutilated (Vigilante Remix) 4:03
07. Sinister Bleeding (Out Out Remix) 4:46
08. Goresex (FGFC 820 Renix) 5:23
09. I'm Freak (Bosch Remix) 4:56
10. The Sex Beast (Ikonoklast Remix) 4:25
11. The Beast Within (Schattenschlag Remix) 3:18
12. Ogre Of Montana (Xentrifuge Remix) 4:46
13. The Love Butcher (Inertia Remix) 4:37
14. Port Elizabeth Massacre (Cynergy 67 Remix) 4:56
15. Urge To Kill (Tempest & The Diaspora Remix) 5:49
Код:
Exact Audio Copy V0.99 prebeta 5 from 4. May 2009
Отчёт EAC об извлечении, выполненном 16. октября 2010, 11:07
Obszon Geschopf / Erection Body Multilated
Дисковод: TSSTcorpCDDVDW TS-L632H   Adapter: 0  ID: 0
Режим чтения                 : Достоверность
Использование точного потока : Да
Отключение кэша аудио        : Да
Использование указателей C2  : Нет
Коррекция смещения при чтении                     : 6
Способность читать области Lead-in и Lead-out     : Нет
Заполнение пропущенных сэмплов тишиной            : Да
Удаление блоков с тишиной в начале и конце        : Нет
При вычислениях CRC использовались нулевые сэмплы : Да
Интерфейс                                         : Встроенный Win32-интерфейс для Win NT/2000
Выходной формат          : Пользовательский кодировщик
Выбранный битрейт        : 1024 kBit/s
Качество                 : Высокий
Добавление ID3-тэга      : Нет
Утилита сжатия           : C:\Program Files\Exact Audio Copy\FLAC\FLAC.EXE
Дополнительные параметры : -6 -V -T "ARTIST=%a" -T "TITLE=%t" -T "ALBUM=%g" -T "DATE=%y" -T "TRACKNUMBER=%n" -T "GENRE=%m" -T "COMMENT=%e" %s -o %d
TOC извлечённого CD
     Трек |   Старт  | Длительность | Начальный сектор | Конечный сектор
    ---------------------------------------------------------------------
       1  |  0:00.00 |    4:29.57   |           0      |      20231
       2  |  4:29.57 |    5:29.30   |       20232      |      44936
       3  |  9:59.12 |    5:44.47   |       44937      |      70783
       4  | 15:43.59 |    4:45.52   |       70784      |      92210
       5  | 20:29.36 |    5:32.21   |       92211      |     117131
       6  | 26:01.57 |    5:41.58   |      117132      |     142764
       7  | 31:43.40 |    6:15.35   |      142765      |     170924
       8  | 37:59.00 |    5:42.23   |      170925      |     196597
       9  | 43:41.23 |    4:59.57   |      196598      |     219079
      10  | 48:41.05 |    5:57.58   |      219080      |     245912
      11  | 54:38.63 |    5:15.14   |      245913      |     269551
      12  | 59:54.02 |    4:40.30   |      269552      |     290581
Характеристики диапазона извлечения и сообщения об ошибках
Выбранный диапазон
     Имя файла C:\Users\Алексей\Desktop\iPOD\Obszon Geschopf - Erection Body Multilated.wav
     Пиковый уровень 99.7 %
     Качество диапазона 100.0 %
     CRC теста 9394DD50
     CRC копии 9394DD50
     Копирование... OK
Ошибок не произошло
AccurateRip: сводка
Трек  1  нет в базе данных
Трек  2  нет в базе данных
Трек  3  нет в базе данных
Трек  4  нет в базе данных
Трек  5  нет в базе данных
Трек  6  нет в базе данных
Трек  7  нет в базе данных
Трек  8  нет в базе данных
Трек  9  нет в базе данных
Трек 10  нет в базе данных
Трек 11  нет в базе данных
Трек 12  нет в базе данных
Ни одного трека нет в базе AccurateRip
Конец отчёта
Код:
Exact Audio Copy V0.99 prebeta 5 from 4. May 2009
Отчёт EAC об извлечении, выполненном 16. октября 2010, 11:51
Obszon Geschopf / Erection Body Multilated Remix CD
Дисковод: TSSTcorpCDDVDW TS-L632H   Adapter: 0  ID: 0
Режим чтения                 : Достоверность
Использование точного потока : Да
Отключение кэша аудио        : Да
Использование указателей C2  : Нет
Коррекция смещения при чтении                     : 6
Способность читать области Lead-in и Lead-out     : Нет
Заполнение пропущенных сэмплов тишиной            : Да
Удаление блоков с тишиной в начале и конце        : Нет
При вычислениях CRC использовались нулевые сэмплы : Да
Интерфейс                                         : Встроенный Win32-интерфейс для Win NT/2000
Выходной формат          : Пользовательский кодировщик
Выбранный битрейт        : 1024 kBit/s
Качество                 : Высокий
Добавление ID3-тэга      : Нет
Утилита сжатия           : C:\Program Files\Exact Audio Copy\FLAC\FLAC.EXE
Дополнительные параметры : -6 -V -T "ARTIST=%a" -T "TITLE=%t" -T "ALBUM=%g" -T "DATE=%y" -T "TRACKNUMBER=%n" -T "GENRE=%m" -T "COMMENT=%e" %s -o %d
TOC извлечённого CD
     Трек |   Старт  | Длительность | Начальный сектор | Конечный сектор
    ---------------------------------------------------------------------
       1  |  0:00.00 |    5:33.31   |           0      |      25005
       2  |  5:33.31 |    4:47.20   |       25006      |      46550
       3  | 10:20.51 |    4:50.66   |       46551      |      68366
       4  | 15:11.42 |    4:52.38   |       68367      |      90304
       5  | 20:04.05 |    4:13.56   |       90305      |     109335
       6  | 24:17.61 |    4:02.72   |      109336      |     127557
       7  | 28:20.58 |    4:46.19   |      127558      |     149026
       8  | 33:07.02 |    5:23.21   |      149027      |     173272
       9  | 38:30.23 |    4:56.01   |      173273      |     195473
      10  | 43:26.24 |    4:25.31   |      195474      |     215379
      11  | 47:51.55 |    3:18.00   |      215380      |     230229
      12  | 51:09.55 |    4:45.67   |      230230      |     251671
      13  | 55:55.47 |    4:36.54   |      251672      |     272425
      14  | 60:32.26 |    4:56.34   |      272426      |     294659
      15  | 65:28.60 |    5:49.07   |      294660      |     320841
Характеристики диапазона извлечения и сообщения об ошибках
Выбранный диапазон
     Имя файла C:\Users\Алексей\Desktop\iPOD\Obszon Geschopf - Erection Body Multilated Remix CD.wav
     Пиковый уровень 100.0 %
     Качество диапазона 100.0 %
     CRC теста 068418DD
     CRC копии 068418DD
     Копирование... OK
Ошибок не произошло
AccurateRip: сводка
Трек  1  нет в базе данных
Трек  2  нет в базе данных
Трек  3  нет в базе данных
Трек  4  нет в базе данных
Трек  5  нет в базе данных
Трек  6  нет в базе данных
Трек  7  нет в базе данных
Трек  8  нет в базе данных
Трек  9  нет в базе данных
Трек 10  нет в базе данных
Трек 11  нет в базе данных
Трек 12  нет в базе данных
Трек 13  нет в базе данных
Трек 14  нет в базе данных
Трек 15  нет в базе данных
Ни одного трека нет в базе AccurateRip
Конец отчёта
Код:
REM GENRE Industrial
REM DATE 2008
REM DISCID 980F220C
REM COMMENT "ExactAudioCopy v0.99pb5"
PERFORMER "Obszon Geschopf"
TITLE "Erection Body Multilated"
FILE "Obszon Geschopf - Erection Body Multilated.flac" WAVE
  TRACK 01 AUDIO
    TITLE "My first piece of meat"
    PERFORMER "Obszon Geschopf"
    INDEX 01 00:00:00
  TRACK 02 AUDIO
    TITLE "Ogre of montana  "
    PERFORMER "Obszon Geschopf"
    INDEX 01 04:29:57
  TRACK 03 AUDIO
    TITLE "Erection body mutilated  "
    PERFORMER "Obszon Geschopf"
    INDEX 01 09:59:12
  TRACK 04 AUDIO
    TITLE "Bloodfeast  "
    PERFORMER "Obszon Geschopf"
    INDEX 01 15:43:59
  TRACK 05 AUDIO
    TITLE "Goresex"
    PERFORMER "Obszon Geschopf"
    INDEX 01 20:29:36
  TRACK 06 AUDIO
    TITLE "Deranged"
    PERFORMER "Obszon Geschopf"
    INDEX 01 26:01:57
  TRACK 07 AUDIO
    TITLE "The sex beast "
    PERFORMER "Obszon Geschopf"
    INDEX 01 31:43:40
  TRACK 08 AUDIO
    TITLE "John wayne gacy"
    PERFORMER "Obszon Geschopf"
    INDEX 01 37:59:00
  TRACK 09 AUDIO
    TITLE "I'm freak"
    PERFORMER "Obszon Geschopf"
    INDEX 01 43:41:23
  TRACK 10 AUDIO
    TITLE "The love butcher  "
    PERFORMER "Obszon Geschopf"
    INDEX 01 48:41:05
  TRACK 11 AUDIO
    TITLE "Urge to kill  "
    PERFORMER "Obszon Geschopf"
    INDEX 01 54:38:63
  TRACK 12 AUDIO
    TITLE "Port elizabeth massacre "
    PERFORMER "Obszon Geschopf"
    INDEX 01 59:54:02
Код:
REM GENRE Industrial
REM DATE 2008
REM DISCID CD10B50F
REM COMMENT "ExactAudioCopy v0.99pb5"
PERFORMER "Obszon Geschopf"
TITLE "Erection Body Multilated Remix CD"
FILE "Obszon Geschopf - Erection Body Multilated Remix CD.flac" WAVE
  TRACK 01 AUDIO
    TITLE "My First Piece Of Meat (Circus Of Dead Squirrels Remix)"
    PERFORMER "Obszon Geschopf"
    FLAGS DCP
    INDEX 01 00:00:00
  TRACK 02 AUDIO
    TITLE "Coffin Shop (Steril Remix)"
    PERFORMER "Obszon Geschopf"
    FLAGS DCP
    INDEX 00 05:31:31
    INDEX 01 05:33:31
  TRACK 03 AUDIO
    TITLE "Deranged (Heimataerde Remix) "
    PERFORMER "Obszon Geschopf"
    FLAGS DCP
    INDEX 00 10:18:51
    INDEX 01 10:20:51
  TRACK 04 AUDIO
    TITLE "The Love Butcher (Cyber Axis Remix) "
    PERFORMER "Obszon Geschopf"
    FLAGS DCP
    INDEX 00 15:09:42
    INDEX 01 15:11:42
  TRACK 05 AUDIO
    TITLE "My First Piece Of Meat (Joachim Witt Remix) "
    PERFORMER "Obszon Geschopf"
    FLAGS DCP
    INDEX 00 20:02:05
    INDEX 01 20:04:05
  TRACK 06 AUDIO
    TITLE "Erection Body Mutilated (Vigilante Remix) "
    PERFORMER "Obszon Geschopf"
    FLAGS DCP
    INDEX 00 24:15:61
    INDEX 01 24:17:61
  TRACK 07 AUDIO
    TITLE "Sinister Bleeding (Out Out Remix)"
    PERFORMER "Obszon Geschopf"
    FLAGS DCP
    INDEX 00 28:18:58
    INDEX 01 28:20:58
  TRACK 08 AUDIO
    TITLE "Goresex (FGFC 820 Renix)"
    PERFORMER "Obszon Geschopf"
    FLAGS DCP
    INDEX 00 33:05:02
    INDEX 01 33:07:02
  TRACK 09 AUDIO
    TITLE "I'm Freak (Bosch Remix) "
    PERFORMER "Obszon Geschopf"
    FLAGS DCP
    INDEX 00 38:28:23
    INDEX 01 38:30:23
  TRACK 10 AUDIO
    TITLE "The Sex Beast (Ikonoklast Remix)"
    PERFORMER "Obszon Geschopf"
    FLAGS DCP
    INDEX 00 43:24:24
    INDEX 01 43:26:24
  TRACK 11 AUDIO
    TITLE "The Beast Within (Schattenschlag Remix)"
    PERFORMER "Obszon Geschopf"
    FLAGS DCP
    INDEX 00 47:49:55
    INDEX 01 47:51:55
  TRACK 12 AUDIO
    TITLE "Ogre Of Montana (Xentrifuge Remix) "
    PERFORMER "Obszon Geschopf"
    FLAGS DCP
    INDEX 00 51:07:55
    INDEX 01 51:09:55
  TRACK 13 AUDIO
    TITLE "The Love Butcher (Inertia Remix) "
    PERFORMER "Obszon Geschopf"
    FLAGS DCP
    INDEX 00 55:53:47
    INDEX 01 55:55:47
  TRACK 14 AUDIO
    TITLE "Port Elizabeth Massacre (Cynergy 67 Remix) "
    PERFORMER "Obszon Geschopf"
    FLAGS DCP
    INDEX 00 60:30:26
    INDEX 01 60:32:26
  TRACK 15 AUDIO
    TITLE "Urge To Kill (Tempest & The Diaspora Remix) "
    PERFORMER "Obszon Geschopf"
    FLAGS DCP
    INDEX 00 65:26:60
    INDEX 01 65:28:60
Правила, инструкции, FAQ!!!
Торрент  Добавлен [26 июн 2020, 17:11] Скачать торрент Магнет ссылка
Скачать торрент
[ Размер 20.75 КБ / Просмотров 2 ]

Статус
Проверен 
 
Размер  993.8 МБ
Приватный: Нет (DHT включён)
.torrent скачан  0
 


     Отправить личное сообщение
   
Страница 1 из 1
Показать сообщения за:  Поле сортировки  
Начать новую тему Ответить на тему


Сейчас этот форум просматривают: нет зарегистрированных пользователей и гости: 0


Вы не можете начинать темы
Вы не можете отвечать на сообщения
Вы не можете редактировать свои сообщения
Вы не можете удалять свои сообщения
Вы не можете добавлять вложения

Перейти:  
cron