Начать новую тему Ответить на тему
Статистика раздачи
Размер: 233.24 МБ | Добавлен: 26 июн 2020, 17:37 | Скачали: 0
Сидеров: 0  [0 байт/сек]    Личеров: 0  [0 байт/сек]
Пред. тема | След. тема 

Автор
Сообщение

СообщениеДобавлено: 26 июн 2020, 17:37 

Ответить с цитатой 

Numb / Fixate
Жанр: EBM, Industrial
Носитель: CD
Страна-производитель диска (релиза): Belgium
Год издания: 1993
Издатель (лейбл): KK Records ‎
Номер по каталогу: KK094 MCD
Страна исполнителя (группы): Canada
Аудиокодек: FLAC (*.flac)
Тип рипа: tracks+.cue
Битрейт аудио: lossless
Продолжительность: 00:35:42
Источник (релизер): What.CD
Наличие сканов в содержимом раздачи: нет
Треклист:
01 Right (Amphetamine Psychosis) 4:35
02 Right (Santa Sangre) 4:43
03 La Neante 3:55
04 Ratblast (Live In Rotterdam) 6:22
05 Frantic (Live In Rome) 3:29
06 Painless (Live In Copenhagen) 3:22
07 Curse (Metastasizing Dub) 5:42
08 Headcrash (Skullcrusher) 3:37
Код:
Exact Audio Copy V0.99 prebeta 5 from 4. May 2009
EAC extraction logfile from 26. September 2010, 9:58
Numb / Fixate
Used drive  : HL-DT-STDVDRAM GSA-H10N   Adapter: 0  ID: 0
Read mode               : Secure
Utilize accurate stream : Yes
Defeat audio cache      : Yes
Make use of C2 pointers : No
Read offset correction                      : 667
Overread into Lead-In and Lead-Out          : No
Fill up missing offset samples with silence : Yes
Delete leading and trailing silent blocks   : No
Null samples used in CRC calculations       : Yes
Used interface                              : Native Win32 interface for Win NT & 2000
Gap handling                                : Appended to previous track
Used output format              : User Defined Encoder
Selected bitrate                : 320 kBit/s
Quality                         : High
Add ID3 tag                     : No
Command line compressor         : C:\Program Files (x86)\Exact Audio Copy\Flac\flac.exe
Additional command line options : -V -8 -T "artist=%a" -T "title=%t" -T "album=%g" -T "date=%y" -T "tracknumber=%n" -T "genre=%m" %s
TOC of the extracted CD
     Track |   Start  |  Length  | Start sector | End sector
    ---------------------------------------------------------
        1  |  0:00.42 |  4:35.18 |        42    |    20684
        2  |  4:35.60 |  4:42.47 |     20685    |    41881
        3  |  9:18.32 |  3:54.33 |     41882    |    59464
        4  | 13:12.65 |  6:21.65 |     59465    |    88104
        5  | 19:34.55 |  3:28.50 |     88105    |   103754
        6  | 23:03.30 |  3:22.02 |    103755    |   118906
        7  | 26:25.32 |  5:41.23 |    118907    |   144504
        8  | 32:06.55 |  3:36.32 |    144505    |   160736
Track  1
     Filename E:\Download\- MP3\Numb-Fixate [FLAC]-1993\01-Right (Amphetamine Psychosis).wav
     Pre-gap length  0:00:02.56
     Peak level 89.0 %
     Track quality 100.0 %
     Test CRC 708F927C
     Copy CRC 708F927C
     Accurately ripped (confidence 2)  [7B124C80]
     Copy OK
Track  2
     Filename E:\Download\- MP3\Numb-Fixate [FLAC]-1993\02-Right (Santa Sangre).wav
     Peak level 97.1 %
     Track quality 100.0 %
     Test CRC 28BB9119
     Copy CRC 28BB9119
     Accurately ripped (confidence 2)  [5CB2A691]
     Copy OK
Track  3
     Filename E:\Download\- MP3\Numb-Fixate [FLAC]-1993\03-La Neante.wav
     Pre-gap length  0:00:00.69
     Peak level 70.6 %
     Track quality 99.9 %
     Test CRC ADCCF696
     Copy CRC ADCCF696
     Accurately ripped (confidence 2)  [1A7D7806]
     Copy OK
Track  4
     Filename E:\Download\- MP3\Numb-Fixate [FLAC]-1993\04-Ratblast (Live In Rotterdam).wav
     Pre-gap length  0:00:02.20
     Peak level 91.6 %
     Track quality 99.9 %
     Test CRC 1502AD22
     Copy CRC 1502AD22
     Accurately ripped (confidence 2)  [0F1B675B]
     Copy OK
Track  5
     Filename E:\Download\- MP3\Numb-Fixate [FLAC]-1993\05-Frantic (Live In Rome).wav
     Peak level 92.1 %
     Track quality 100.0 %
     Test CRC 0293C7B1
     Copy CRC 0293C7B1
     Accurately ripped (confidence 2)  [33C1C5C6]
     Copy OK
Track  6
     Filename E:\Download\- MP3\Numb-Fixate [FLAC]-1993\06-Painless (Live In Copenhagen).wav
     Peak level 94.7 %
     Track quality 100.0 %
     Test CRC 4AF7B505
     Copy CRC 4AF7B505
     Track not present in AccurateRip database
     Copy OK
Track  7
     Filename E:\Download\- MP3\Numb-Fixate [FLAC]-1993\07-Curse (Metastasizing Dub).wav
     Pre-gap length  0:00:01.20
     Peak level 95.1 %
     Track quality 100.0 %
     Test CRC E1F170EC
     Copy CRC E1F170EC
     Track not present in AccurateRip database
     Copy OK
Track  8
     Filename E:\Download\- MP3\Numb-Fixate [FLAC]-1993\08-Headcrash (Skullcrusher).wav
     Pre-gap length  0:00:01.20
     Peak level 79.8 %
     Track quality 100.0 %
     Test CRC EE82FC7B
     Copy CRC EE82FC7B
     Accurately ripped (confidence 2)  [308C6AA0]
     Copy OK
 6 track(s) accurately ripped
 2 track(s) not present in the AccurateRip database
Some tracks could not be verified as accurate
No errors occurred
End of status report
Код:
REM GENRE Industrial
REM DATE 1993
REM DISCID 7A085F08
REM COMMENT "ExactAudioCopy v0.99pb5"
FILE "01-Right (Amphetamine Psychosis).wav" WAVE
  TRACK 01 AUDIO
    PREGAP 00:00:42
    INDEX 01 00:00:00
FILE "02-Right (Santa Sangre).wav" WAVE
  TRACK 02 AUDIO
    INDEX 01 00:00:00
  TRACK 03 AUDIO
    INDEX 00 04:41:70
FILE "03-La Neante.wav" WAVE
    INDEX 01 00:00:00
  TRACK 04 AUDIO
    INDEX 00 03:52:18
FILE "04-Ratblast (Live In Rotterdam).wav" WAVE
    INDEX 01 00:00:00
FILE "05-Frantic (Live In Rome).wav" WAVE
  TRACK 05 AUDIO
    INDEX 01 00:00:00
FILE "06-Painless (Live In Copenhagen).wav" WAVE
  TRACK 06 AUDIO
    INDEX 01 00:00:00
  TRACK 07 AUDIO
    INDEX 00 03:20:62
FILE "07-Curse (Metastasizing Dub).wav" WAVE
    INDEX 01 00:00:00
  TRACK 08 AUDIO
    INDEX 00 05:40:08
FILE "08-Headcrash (Skullcrusher).wav" WAVE
    INDEX 01 00:00:00
Правила, инструкции, FAQ!!!
Торрент  Добавлен [26 июн 2020, 17:37] Скачать торрент Магнет ссылка
Скачать торрент
[ Размер 19.53 КБ / Просмотров 3 ]

Статус
Проверен 
 
Размер  233.24 МБ
Приватный: Нет (DHT включён)
.torrent скачан  0
 


     Отправить личное сообщение
   
Страница 1 из 1
Показать сообщения за:  Поле сортировки  
Начать новую тему Ответить на тему


Сейчас этот форум просматривают: нет зарегистрированных пользователей и гости: 0


Вы не можете начинать темы
Вы не можете отвечать на сообщения
Вы не можете редактировать свои сообщения
Вы не можете удалять свои сообщения
Вы не можете добавлять вложения

Перейти:  
cron