Начать новую тему Ответить на тему
Статистика раздачи
Размер: 391.15 МБ | Добавлен: 26 июн 2020, 19:44 | Скачали: 0
Сидеров: 0  [0 байт/сек]    Личеров: 0  [0 байт/сек]
Пред. тема | След. тема 

Автор
Сообщение

СообщениеДобавлено: 26 июн 2020, 19:44 

Ответить с цитатой 

Numb - Death On The Installment Plan
Жанр: EBM, Industrial
Год выпуска диска: 1993
Производитель диска: Бельгия (KK Records)
Аудио кодек: FLAC
Тип рипа: tracks+.cue
Битрейт аудио: lossless
Продолжительность: 00:57:47
Источник what.cd
Трэклист:
01. Violence
02. Hole
03. Curse
04. Trial
05. Painless
06. Right...
07. Shithammer
08. A Dead Place
Percussion [Additional] - Brad Facepuller
09. Decay Of The Angel
10. Headcrash
Bass - Thighmaster
11. Fugue
12. Revenant
X Lossless Decoder version 20090320 (105.1)
XLD extraction logfile from 2009-05-04 00:33:38 +0200
Numb / Death on the Installment Plan
Used drive : HL-DT-ST DVDRW GSA-S10N (revision AP12)
Use cdparanoia mode : YES (CDParanoia III 10.2 engine)
Disable audio cache : OK for the drive with cache less than 2750KB
Make use of C2 pointers : NO
Read offset correction : 667
Max retry count : 100
TOC of the extracted CD
Track | Start | Length | Start sector | End sector
---------------------------------------------------------
1 | 00:00:25 | 01:12:50 | 25 | 5474
2 | 01:13:00 | 05:07:57 | 5475 | 28556
3 | 06:20:57 | 07:03:38 | 28557 | 60319
4 | 13:24:20 | 06:13:10 | 60320 | 88304
5 | 19:37:30 | 03:35:57 | 88305 | 104486
6 | 23:13:12 | 04:06:63 | 104487 | 122999
7 | 27:20:00 | 07:33:12 | 123000 | 156986
8 | 34:53:12 | 06:16:18 | 156987 | 185204
9 | 41:09:30 | 04:46:15 | 185205 | 206669
10 | 45:55:45 | 05:47:42 | 206670 | 232736
11 | 51:43:12 | 02:02:25 | 232737 | 241911
12 | 53:45:37 | 05:02:18 | 241912 | 264579
Track 01
Filename : /Volumes/LaQueen/Torrents-todo/Numb - Death on the installment plan flac/01 Violence.flac
CRC32 hash (test run) : 0CE8CC04
CRC32 hash : 0CE8CC04
CRC32 hash (skip zero) : A7AB0D02
AccurateRip signature : 426B565D
->Track not present in AccurateRip database.
Statistics
Read error : 0
Skipped (treated as error) : 0
Edge jitter error (maybe fixed) : 0
Atom jitter error (maybe fixed) : 0
Drift error (maybe fixed) : 0
Dropped bytes error (maybe fixed) : 0
Duplicated bytes error (maybe fixed) : 0
Inconsistency in error sectors : 0
Track 02
Filename : /Volumes/LaQueen/Torrents-todo/Numb - Death on the installment plan flac/02 Hole.flac
CRC32 hash (test run) : 8C2E655E
CRC32 hash : 8C2E655E
CRC32 hash (skip zero) : F428F4D3
AccurateRip signature : A27E9DD5
->Track not present in AccurateRip database.
Statistics
Read error : 0
Skipped (treated as error) : 0
Edge jitter error (maybe fixed) : 0
Atom jitter error (maybe fixed) : 0
Drift error (maybe fixed) : 0
Dropped bytes error (maybe fixed) : 0
Duplicated bytes error (maybe fixed) : 0
Inconsistency in error sectors : 0
Track 03
Filename : /Volumes/LaQueen/Torrents-todo/Numb - Death on the installment plan flac/03 Curse.flac
CRC32 hash (test run) : 8625451A
CRC32 hash : 8625451A
CRC32 hash (skip zero) : CA3C8246
AccurateRip signature : 32B0B1B2
->Track not present in AccurateRip database.
Statistics
Read error : 0
Skipped (treated as error) : 0
Edge jitter error (maybe fixed) : 0
Atom jitter error (maybe fixed) : 0
Drift error (maybe fixed) : 0
Dropped bytes error (maybe fixed) : 0
Duplicated bytes error (maybe fixed) : 0
Inconsistency in error sectors : 0
Track 04
Filename : /Volumes/LaQueen/Torrents-todo/Numb - Death on the installment plan flac/04 Trial.flac
CRC32 hash (test run) : B33995E6
CRC32 hash : B33995E6
CRC32 hash (skip zero) : E214C014
AccurateRip signature : 5FBD4076
->Track not present in AccurateRip database.
Statistics
Read error : 0
Skipped (treated as error) : 0
Edge jitter error (maybe fixed) : 0
Atom jitter error (maybe fixed) : 0
Drift error (maybe fixed) : 0
Dropped bytes error (maybe fixed) : 0
Duplicated bytes error (maybe fixed) : 0
Inconsistency in error sectors : 0
Track 05
Filename : /Volumes/LaQueen/Torrents-todo/Numb - Death on the installment plan flac/05 Painless.flac
CRC32 hash (test run) : 737F000D
CRC32 hash : 737F000D
CRC32 hash (skip zero) : 182443A6
AccurateRip signature : 007761F5
->Track not present in AccurateRip database.
Statistics
Read error : 0
Skipped (treated as error) : 0
Edge jitter error (maybe fixed) : 0
Atom jitter error (maybe fixed) : 0
Drift error (maybe fixed) : 0
Dropped bytes error (maybe fixed) : 0
Duplicated bytes error (maybe fixed) : 0
Inconsistency in error sectors : 0
Track 06
Filename : /Volumes/LaQueen/Torrents-todo/Numb - Death on the installment plan flac/06 Right....flac
CRC32 hash (test run) : 1ABB5355
CRC32 hash : 1ABB5355
CRC32 hash (skip zero) : 4103ACAA
AccurateRip signature : 59237704
->Track not present in AccurateRip database.
Statistics
Read error : 0
Skipped (treated as error) : 0
Edge jitter error (maybe fixed) : 0
Atom jitter error (maybe fixed) : 0
Drift error (maybe fixed) : 0
Dropped bytes error (maybe fixed) : 0
Duplicated bytes error (maybe fixed) : 0
Inconsistency in error sectors : 0
Track 07
Filename : /Volumes/LaQueen/Torrents-todo/Numb - Death on the installment plan flac/07 Shithammer.flac
CRC32 hash (test run) : 3C1BE87C
CRC32 hash : 3C1BE87C
CRC32 hash (skip zero) : 33028D21
AccurateRip signature : 15039E41
->Track not present in AccurateRip database.
Statistics
Read error : 0
Skipped (treated as error) : 0
Edge jitter error (maybe fixed) : 0
Atom jitter error (maybe fixed) : 0
Drift error (maybe fixed) : 0
Dropped bytes error (maybe fixed) : 0
Duplicated bytes error (maybe fixed) : 0
Inconsistency in error sectors : 0
Track 08
Filename : /Volumes/LaQueen/Torrents-todo/Numb - Death on the installment plan flac/08 A Dead Place.flac
CRC32 hash (test run) : C0D9C000
CRC32 hash : C0D9C000
CRC32 hash (skip zero) : 0E3DBFA3
AccurateRip signature : 0CE15196
->Track not present in AccurateRip database.
Statistics
Read error : 0
Skipped (treated as error) : 0
Edge jitter error (maybe fixed) : 0
Atom jitter error (maybe fixed) : 0
Drift error (maybe fixed) : 0
Dropped bytes error (maybe fixed) : 0
Duplicated bytes error (maybe fixed) : 0
Inconsistency in error sectors : 0
Track 09
Filename : /Volumes/LaQueen/Torrents-todo/Numb - Death on the installment plan flac/09 Decay Of The Angel.flac
CRC32 hash (test run) : 0912AB10
CRC32 hash : 0912AB10
CRC32 hash (skip zero) : AD91BA2C
AccurateRip signature : A6CAFFC9
->Track not present in AccurateRip database.
Statistics
Read error : 0
Skipped (treated as error) : 0
Edge jitter error (maybe fixed) : 0
Atom jitter error (maybe fixed) : 0
Drift error (maybe fixed) : 0
Dropped bytes error (maybe fixed) : 0
Duplicated bytes error (maybe fixed) : 0
Inconsistency in error sectors : 0
Track 10
Filename : /Volumes/LaQueen/Torrents-todo/Numb - Death on the installment plan flac/10 Headcrash.flac
CRC32 hash (test run) : E1CCEB6C
CRC32 hash : E1CCEB6C
CRC32 hash (skip zero) : 1A4D68E9
AccurateRip signature : 6202843A
->Track not present in AccurateRip database.
Statistics
Read error : 0
Skipped (treated as error) : 0
Edge jitter error (maybe fixed) : 0
Atom jitter error (maybe fixed) : 0
Drift error (maybe fixed) : 0
Dropped bytes error (maybe fixed) : 0
Duplicated bytes error (maybe fixed) : 0
Inconsistency in error sectors : 0
Track 11
Filename : /Volumes/LaQueen/Torrents-todo/Numb - Death on the installment plan flac/11 Fugue.flac
CRC32 hash (test run) : B2AA9392
CRC32 hash : B2AA9392
CRC32 hash (skip zero) : E35D7192
AccurateRip signature : 149F9BE2
->Track not present in AccurateRip database.
Statistics
Read error : 0
Skipped (treated as error) : 0
Edge jitter error (maybe fixed) : 0
Atom jitter error (maybe fixed) : 0
Drift error (maybe fixed) : 0
Dropped bytes error (maybe fixed) : 0
Duplicated bytes error (maybe fixed) : 0
Inconsistency in error sectors : 0
Track 12
Filename : /Volumes/LaQueen/Torrents-todo/Numb - Death on the installment plan flac/12 Revenant.flac
CRC32 hash (test run) : D4CB4D97
CRC32 hash : D4CB4D97
CRC32 hash (skip zero) : 5F528B92
AccurateRip signature : 88746146
->Track not present in AccurateRip database.
Statistics
Read error : 0
Skipped (treated as error) : 0
Edge jitter error (maybe fixed) : 0
Atom jitter error (maybe fixed) : 0
Drift error (maybe fixed) : 0
Dropped bytes error (maybe fixed) : 0
Duplicated bytes error (maybe fixed) : 0
Inconsistency in error sectors : 0
No errors occurred
End of status report
Доп. информация: Numb был образован в 1986 году в канадском городе Ванкувер Доном Гордоном (Don Gordon). Основной целью группы было поднятие проблем, связанных с бесчувственностью и напряженностью общества. Через год вышла демонстрационная кассета Blue Light, а в 1988 году на парижском лэйбле Lively Art выходит дебютный альбом. Один из критиков описал музыку группы как "истерзанное и дрожащее изображение гнева и беспорядка, отчуждения и обезчувствления, нарисованное кошмарными красками на фабричных стенах".
Правила, инструкции, FAQ!!!
Торрент  Добавлен [26 июн 2020, 19:44] Скачать торрент Магнет ссылка
Скачать торрент
[ Размер 9.45 КБ / Просмотров 7 ]

Статус
Проверен 
 
Размер  391.15 МБ
Приватный: Нет (DHT включён)
.torrent скачан  0
 


     Отправить личное сообщение
   
Страница 1 из 1
Показать сообщения за:  Поле сортировки  
Начать новую тему Ответить на тему


Сейчас этот форум просматривают: нет зарегистрированных пользователей и гости: 0


Вы не можете начинать темы
Вы не можете отвечать на сообщения
Вы не можете редактировать свои сообщения
Вы не можете удалять свои сообщения
Вы не можете добавлять вложения

Перейти:  
cron