Начать новую тему Ответить на тему
Статистика раздачи
Размер: 412.84 МБ | Добавлен: 26 июн 2020, 17:53 | Скачали: 0
Сидеров: 0  [0 байт/сек]    Личеров: 0  [0 байт/сек]
Пред. тема | След. тема 

Автор
Сообщение

СообщениеДобавлено: 26 июн 2020, 17:53 

Ответить с цитатой 

Nolongerhuman - [antipathy]
Жанр: EBM industrial
Год выпуска диска: 2009
Производитель диска: (COP Interantional, USA)
Аудио кодек: FLAC
Тип рипа: tracks+.cue
Битрейт аудио: lossless
Продолжительность: 51:40.69
Трэклист:
01. Let Me Go [5:33]
02. Addict [5:06]
03. Surrogate [4:23]
04. Darling [5:07]
05. Welcome To The Company [4:35]
06. Our New World [4:34]
07. Autonomy [5:04]
08. Thought Process [4:38]
09. Quality Of Mercy [4:44]
10. End Times [4:50]
11. Penitence [3:07]
Код:
Exact Audio Copy V0.99 prebeta 4 from 23. January 2008
EAC extraction logfile from 27. January 2009, 22:01
nolongerhuman / [antipathy]
Used drive  : LITE-ON DVDRW SHW-1635S   Adapter: 1  ID: 0
Read mode               : Secure
Utilize accurate stream : Yes
Defeat audio cache      : Yes
Make use of C2 pointers : No
Read offset correction                      : 6
Overread into Lead-In and Lead-Out          : No
Fill up missing offset samples with silence : Yes
Delete leading and trailing silent blocks   : No
Null samples used in CRC calculations       : Yes
Used interface                              : Native Win32 interface for Win NT & 2000
Gap handling                                : Appended to previous track
Used output format              : User Defined Encoder
Selected bitrate                : 128 kBit/s
Quality                         : High
Add ID3 tag                     : No
Command line compressor         : C:\Program Files\FLAC\flac.exe
Additional command line options : -V -8 -T "artist=%a" -T "title=%t" -T "album=%g" -T "date=%y" -T "tracknumber=%n" -T "genre=%m" %s
TOC of the extracted CD
     Track |   Start  |  Length  | Start sector | End sector
    ---------------------------------------------------------
        1  |  0:00.00 |  5:32.53 |         0    |    24952
        2  |  5:32.53 |  5:05.44 |     24953    |    47871
        3  | 10:38.22 |  4:23.09 |     47872    |    67605
        4  | 15:01.31 |  5:07.16 |     67606    |    90646
        5  | 20:08.47 |  4:35.08 |     90647    |   111279
        6  | 24:43.55 |  4:34.33 |    111280    |   131862
        7  | 29:18.13 |  5:03.52 |    131863    |   154639
        8  | 34:21.65 |  4:38.01 |    154640    |   175490
        9  | 38:59.66 |  4:43.63 |    175491    |   196778
       10  | 43:43.54 |  4:50.06 |    196779    |   218534
       11  | 48:33.60 |  3:07.09 |    218535    |   232568
Track  1
     Filename M:\N\Nolongerhuman\Nolongerhuman-[antipathy]-FLAC-2009\01 - nolongerhuman - Let Me Go.wav
     Pre-gap length  0:00:02.00
     Peak level 98.9 %
     Track quality 99.9 %
     Test CRC 55859102
     Copy CRC 55859102
     Copy OK
Track  2
     Filename M:\N\Nolongerhuman\Nolongerhuman-[antipathy]-FLAC-2009\02 - nolongerhuman - Addict.wav
     Pre-gap length  0:00:02.00
     Peak level 98.7 %
     Track quality 100.0 %
     Test CRC 0F1086D6
     Copy CRC 0F1086D6
     Copy OK
Track  3
     Filename M:\N\Nolongerhuman\Nolongerhuman-[antipathy]-FLAC-2009\03 - nolongerhuman - Surrogate.wav
     Pre-gap length  0:00:02.00
     Peak level 98.9 %
     Track quality 100.0 %
     Test CRC 47AC707A
     Copy CRC 47AC707A
     Copy OK
Track  4
     Filename M:\N\Nolongerhuman\Nolongerhuman-[antipathy]-FLAC-2009\04 - nolongerhuman - Darling.wav
     Pre-gap length  0:00:02.00
     Peak level 98.7 %
     Track quality 100.0 %
     Test CRC 9964811E
     Copy CRC 9964811E
     Copy OK
Track  5
     Filename M:\N\Nolongerhuman\Nolongerhuman-[antipathy]-FLAC-2009\05 - nolongerhuman - Welcome To The Company.wav
     Pre-gap length  0:00:02.00
     Peak level 98.9 %
     Track quality 100.0 %
     Test CRC 4BB2E639
     Copy CRC 4BB2E639
     Copy OK
Track  6
     Filename M:\N\Nolongerhuman\Nolongerhuman-[antipathy]-FLAC-2009\06 - nolongerhuman - Our new World.wav
     Pre-gap length  0:00:02.00
     Peak level 98.9 %
     Track quality 100.0 %
     Test CRC 714D0F85
     Copy CRC 714D0F85
     Copy OK
Track  7
     Filename M:\N\Nolongerhuman\Nolongerhuman-[antipathy]-FLAC-2009\07 - nolongerhuman - Autonomy.wav
     Pre-gap length  0:00:02.00
     Peak level 98.7 %
     Track quality 100.0 %
     Test CRC 2A5B656B
     Copy CRC 2A5B656B
     Copy OK
Track  8
     Filename M:\N\Nolongerhuman\Nolongerhuman-[antipathy]-FLAC-2009\08 - nolongerhuman - Thought Process.wav
     Pre-gap length  0:00:02.00
     Peak level 98.8 %
     Track quality 100.0 %
     Test CRC 19D61E78
     Copy CRC 19D61E78
     Copy OK
Track  9
     Filename M:\N\Nolongerhuman\Nolongerhuman-[antipathy]-FLAC-2009\09 - nolongerhuman - Quality Of Mercy.wav
     Pre-gap length  0:00:02.00
     Peak level 98.9 %
     Track quality 100.0 %
     Test CRC 4F25AE42
     Copy CRC 4F25AE42
     Copy OK
Track 10
     Filename M:\N\Nolongerhuman\Nolongerhuman-[antipathy]-FLAC-2009\10 - nolongerhuman - End Times.wav
     Pre-gap length  0:00:02.00
     Peak level 98.9 %
     Track quality 100.0 %
     Test CRC CE938383
     Copy CRC CE938383
     Copy OK
Track 11
     Filename M:\N\Nolongerhuman\Nolongerhuman-[antipathy]-FLAC-2009\11 - nolongerhuman - Penitence.wav
     Pre-gap length  0:00:02.00
     Peak level 98.7 %
     Track quality 100.0 %
     Test CRC 18C70AB5
     Copy CRC 18C70AB5
     Copy OK
No errors occurred
End of status report
Источник: What.CD
Правила, инструкции, FAQ!!!
Торрент  Добавлен [26 июн 2020, 17:53] Скачать торрент Магнет ссылка
Скачать торрент
[ Размер 17.57 КБ / Просмотров 14 ]

Статус
Проверен 
 
Размер  412.84 МБ
Приватный: Нет (DHT включён)
.torrent скачан  0
 


     Отправить личное сообщение
   
Страница 1 из 1
Показать сообщения за:  Поле сортировки  
Начать новую тему Ответить на тему


Сейчас этот форум просматривают: нет зарегистрированных пользователей и гости: 0


Вы не можете начинать темы
Вы не можете отвечать на сообщения
Вы не можете редактировать свои сообщения
Вы не можете удалять свои сообщения
Вы не можете добавлять вложения

Перейти:  
cron