Начать новую тему Ответить на тему
Статистика раздачи
Размер: 614.21 МБ | Добавлен: 26 июн 2020, 17:07 | Скачали: 0
Сидеров: 0  [0 байт/сек]    Личеров: 0  [0 байт/сек]
Пред. тема | След. тема 

Автор
Сообщение

СообщениеДобавлено: 26 июн 2020, 17:07 

Ответить с цитатой 

Various Artists - Noise Terror 2 - World Wide Electronics
Жанр: EBM, Industrial
Страна-производитель диска: Germany
Год издания диска: 2007
Издатель (лейбл): Noise Terror Productions, Dependent Records
Номер по каталогу: NTP 009, Mind 134
Аудио кодек: FLAC (*.flac)
Тип рипа: tracks+.cue
Битрейт аудио: lossless
Продолжительность: 1:19:21
Источник (релизер): waffles.fm (oflasen1)
Наличие сканов в содержимом раздачи: да
Треклист:
1. Rosewater - N.M.E. (6:24)
2. Alien Vampires - Evil Generation (4:54)
3. Noisuf-X - Fine Line [Fast Forward Mix] (4:56)
4. Chaoskult - Vengeance Is Mine (4:51)
5. Ginger Snaps - Feel My Rhythm (5:38)
6. Straftanz [feat. Myk Jung] - Burn Down Heaven (4:28)
7. Controlled Collapse - destiny [slavestage remix by Egoist] (3:40)
8. Suicide Commando - Hate Me (5:14)
9. Asphyxia - Sense Of Decay (6:00)
10. Kombat Unit - We Are Machines (5:22)
11. Winter Soul - Reactor (6:58)
12. Reaxion Guerrilla - sacrifice [remixed by X-FUSION] (5:01)
13. Grendel - judged ones [Fractured remix] (4:14)
14. Sadiztik Injektion - Realize The Suicide (5:42)
15. Fix8:sed8 - minotaurus [man vs. animal mix by Cold Drive] (5:59)
Discogs.com
Код:
Exact Audio Copy V0.99 prebeta 4 from 23. January 2008
EAC extraction logfile from 7. February 2009, 22:25
Various / Noise Terror Volume 2
Used drive  : PLEXTOR DVDR   PX-760A   Adapter: 1  ID: 0
Read mode               : Secure
Utilize accurate stream : Yes
Defeat audio cache      : Yes
Make use of C2 pointers : No
Read offset correction                      : 30
Overread into Lead-In and Lead-Out          : No
Fill up missing offset samples with silence : Yes
Delete leading and trailing silent blocks   : No
Null samples used in CRC calculations       : Yes
Used interface                              : Installed external ASPI interface
Gap handling                                : Appended to previous track
Used output format              : User Defined Encoder
Selected bitrate                : 192 kBit/s
Quality                         : High
Add ID3 tag                     : No
Command line compressor         : C:\Program Files\Exact Audio Copy\FLAC\FLAC.EXE
Additional command line options : -8 -A tukey(0.25) -A gauss(0.1875) -b 4096 -V -T "artist=%a" -T "title=%t" -T "album=%g" -T "date=%y" -T "tracknumber=%n" -T "genre=%m" %s --sector-align
TOC of the extracted CD
     Track |   Start  |  Length  | Start sector | End sector
    ---------------------------------------------------------
        1  |  0:00.00 |  6:24.61 |         0    |    28860
        2  |  6:24.61 |  4:54.25 |     28861    |    50935
        3  | 11:19.11 |  4:55.62 |     50936    |    73122
        4  | 16:14.73 |  4:50.46 |     73123    |    94918
        5  | 21:05.44 |  5:38.35 |     94919    |   120303
        6  | 26:44.04 |  4:28.31 |    120304    |   140434
        7  | 31:12.35 |  3:39.74 |    140435    |   156933
        8  | 34:52.34 |  5:13.50 |    156934    |   180458
        9  | 40:06.09 |  5:59.46 |    180459    |   207429
       10  | 46:05.55 |  5:22.11 |    207430    |   231590
       11  | 51:27.66 |  6:58.01 |    231591    |   262941
       12  | 58:25.67 |  5:01.25 |    262942    |   285541
       13  | 63:27.17 |  4:13.43 |    285542    |   304559
       14  | 67:40.60 |  5:42.02 |    304560    |   330211
       15  | 73:22.62 |  5:59.13 |    330212    |   357149
Track  1
     Filename H:\Torrent\VА - Noiseterror 2 - 2007\01 - Rosewater - N.M.E..wav
     Pre-gap length  0:00:02.00
     Peak level 96.5 %
     Track quality 100.0 %
     Test CRC 2E0EDAE2
     Copy CRC 2E0EDAE2
     Copy OK
Track  2
     Filename H:\Torrent\VА - Noiseterror 2 - 2007\02 - Alien Vampires - Evil Generation.wav
     Peak level 92.8 %
     Track quality 100.0 %
     Test CRC 76EC0690
     Copy CRC 76EC0690
     Copy OK
Track  3
     Filename H:\Torrent\VА - Noiseterror 2 - 2007\03 - Noisuf-X - Fine Line [Fast Forward Mix].wav
     Peak level 74.0 %
     Track quality 100.0 %
     Test CRC 554334CC
     Copy CRC 554334CC
     Copy OK
Track  4
     Filename H:\Torrent\VА - Noiseterror 2 - 2007\04 - Chaoskult - Vengeance Is Mine.wav
     Peak level 96.7 %
     Track quality 100.0 %
     Test CRC 4F8A948B
     Copy CRC 4F8A948B
     Copy OK
Track  5
     Filename H:\Torrent\VА - Noiseterror 2 - 2007\05 - Ginger Snaps - Feel My Rhythm.wav
     Peak level 92.4 %
     Track quality 100.0 %
     Test CRC ADA8A95A
     Copy CRC ADA8A95A
     Copy OK
Track  6
     Filename H:\Torrent\VА - Noiseterror 2 - 2007\06 - Straftanz [feat. Myk Jung] - Burn Down Heaven.wav
     Peak level 94.8 %
     Track quality 100.0 %
     Test CRC 9FCA794C
     Copy CRC 9FCA794C
     Copy OK
Track  7
     Filename H:\Torrent\VА - Noiseterror 2 - 2007\07 - Controlled Collapse - destiny [slavestage remix by Egoist].wav
     Peak level 93.0 %
     Track quality 100.0 %
     Test CRC 8109F723
     Copy CRC 8109F723
     Copy OK
Track  8
     Filename H:\Torrent\VА - Noiseterror 2 - 2007\08 - Suicide Commando - Hate Me.wav
     Peak level 97.2 %
     Track quality 100.0 %
     Test CRC B730D57A
     Copy CRC B730D57A
     Copy OK
Track  9
     Filename H:\Torrent\VА - Noiseterror 2 - 2007\09 - Asphyxia - Sense Of Decay.wav
     Peak level 93.2 %
     Track quality 99.9 %
     Test CRC F5ACD920
     Copy CRC F5ACD920
     Copy OK
Track 10
     Filename H:\Torrent\VА - Noiseterror 2 - 2007\10 - Kombat Unit - We Are Machines.wav
     Peak level 86.6 %
     Track quality 100.0 %
     Test CRC D92400F9
     Copy CRC D92400F9
     Copy OK
Track 11
     Filename H:\Torrent\VА - Noiseterror 2 - 2007\11 - Winter Soul - Reactor.wav
     Peak level 100.0 %
     Track quality 100.0 %
     Test CRC 2BBAF76E
     Copy CRC 2BBAF76E
     Copy OK
Track 12
     Filename H:\Torrent\VА - Noiseterror 2 - 2007\12 - Reaxion Guerrilla - sacrifice [remixed by X-FUSION].wav
     Peak level 100.0 %
     Track quality 100.0 %
     Test CRC 10FCE6A9
     Copy CRC 10FCE6A9
     Copy OK
Track 13
     Filename H:\Torrent\VА - Noiseterror 2 - 2007\13 - Grendel - judged ones [Fractured remix].wav
     Peak level 68.0 %
     Track quality 100.0 %
     Test CRC DF01142F
     Copy CRC DF01142F
     Copy OK
Track 14
     Filename H:\Torrent\VА - Noiseterror 2 - 2007\14 - Sadiztik Injektion - Realize The Suicide.wav
     Peak level 96.5 %
     Track quality 99.9 %
     Test CRC 33F73BA8
     Copy CRC 33F73BA8
     Copy OK
Track 15
     Filename H:\Torrent\VА - Noiseterror 2 - 2007\15 - Fix8-sed8 - minotaurus [man vs. animal mix by Cold Drive].wav
     Peak level 98.8 %
     Track quality 100.0 %
     Test CRC 6354AA72
     Copy CRC 6354AA72
     Copy OK
No errors occurred
End of status report
Код:
REM DISCID EB129A0F
REM COMMENT "ExactAudioCopy v0.99pb4"
PERFORMER "Various"
TITLE "Noise Terror Volume 2 "
FILE "01 - Rosewater - N.M.E..wav" WAVE
  TRACK 01 AUDIO
    TITLE "N.M.E."
    PERFORMER "Rosewater"
    INDEX 01 00:00:00
FILE "02 - Alien Vampires - Evil Generation.wav" WAVE
  TRACK 02 AUDIO
    TITLE "Evil Generation"
    PERFORMER "Alien Vampires"
    INDEX 01 00:00:00
FILE "03 - Noisuf-X - Fine Line [Fast Forward Mix].wav" WAVE
  TRACK 03 AUDIO
    TITLE "Fine Line [Fast Forward Mix]"
    PERFORMER "Noisuf-X"
    INDEX 01 00:00:00
FILE "04 - Chaoskult - Vengeance Is Mine.wav" WAVE
  TRACK 04 AUDIO
    TITLE "Vengeance Is Mine"
    PERFORMER "Chaoskult"
    INDEX 01 00:00:00
FILE "05 - Ginger Snaps - Feel My Rhythm.wav" WAVE
  TRACK 05 AUDIO
    TITLE "Feel My Rhythm"
    PERFORMER "Ginger Snaps"
    INDEX 01 00:00:00
FILE "06 - Straftanz [feat. Myk Jung] - Burn Down Heaven.wav" WAVE
  TRACK 06 AUDIO
    TITLE "Burn Down Heaven"
    PERFORMER "Straftanz [feat. Myk Jung]"
    INDEX 01 00:00:00
FILE "07 - Controlled Collapse - destiny [slavestage remix by Egoist].wav" WAVE
  TRACK 07 AUDIO
    TITLE "destiny [slavestage remix by Egoist]"
    PERFORMER "Controlled Collapse"
    INDEX 01 00:00:00
FILE "08 - Suicide Commando - Hate Me.wav" WAVE
  TRACK 08 AUDIO
    TITLE "Hate Me"
    PERFORMER "Suicide Commando"
    INDEX 01 00:00:00
FILE "09 - Asphyxia - Sense Of Decay.wav" WAVE
  TRACK 09 AUDIO
    TITLE "Sense Of Decay"
    PERFORMER "Asphyxia"
    INDEX 01 00:00:00
FILE "10 - Kombat Unit - We Are Machines.wav" WAVE
  TRACK 10 AUDIO
    TITLE "We Are Machines"
    PERFORMER "Kombat Unit"
    INDEX 01 00:00:00
FILE "11 - Winter Soul - Reactor.wav" WAVE
  TRACK 11 AUDIO
    TITLE "Reactor"
    PERFORMER "Winter Soul"
    INDEX 01 00:00:00
FILE "12 - Reaxion Guerrilla - sacrifice [remixed by X-FUSION].wav" WAVE
  TRACK 12 AUDIO
    TITLE "sacrifice [remixed by X-FUSION]"
    PERFORMER "Reaxion Guerrilla"
    INDEX 01 00:00:00
FILE "13 - Grendel - judged ones [Fractured remix].wav" WAVE
  TRACK 13 AUDIO
    TITLE "judged ones [Fractured remix]"
    PERFORMER "Grendel"
    INDEX 01 00:00:00
FILE "14 - Sadiztik Injektion - Realize The Suicide.wav" WAVE
  TRACK 14 AUDIO
    TITLE "Realize The Suicide"
    PERFORMER "Sadiztik Injektion"
    INDEX 01 00:00:00
FILE "15 - Fix8-sed8 - minotaurus [man vs. animal mix by Cold Drive].wav" WAVE
  TRACK 15 AUDIO
    TITLE "minotaurus [man vs. animal mix by Cold Drive]"
    PERFORMER "Fix8:sed8"
    INDEX 01 00:00:00
Код:
-----------------------------------------------------------
Started at: суббота, 12. 02. 2011. - 18:46.23
15 files found
01 -===- E:\Music\VА - Noise Terror 2 - World Wide Electronics - 2007\01 - Rosewater - N.M.E..flac
  Extracted successfully
  Conclusion: This track looks like CDDA with probability 100%
  Tempfile successfully deleted.
02 -===- E:\Music\VА - Noise Terror 2 - World Wide Electronics - 2007\02 - Alien Vampires - Evil Generation.flac
  Extracted successfully
  Conclusion: This track looks like CDDA with probability 100%
  Tempfile successfully deleted.
03 -===- E:\Music\VА - Noise Terror 2 - World Wide Electronics - 2007\03 - Noisuf-X - Fine Line [Fast Forward Mix].flac
  Extracted successfully
  Conclusion: This track looks like CDDA with probability 100%
  Tempfile successfully deleted.
04 -===- E:\Music\VА - Noise Terror 2 - World Wide Electronics - 2007\04 - Chaoskult - Vengeance Is Mine.flac
  Extracted successfully
  Conclusion: This track looks like CDDA with probability 100%
  Tempfile successfully deleted.
05 -===- E:\Music\VА - Noise Terror 2 - World Wide Electronics - 2007\05 - Ginger Snaps - Feel My Rhythm.flac
  Extracted successfully
  Conclusion: This track looks like CDDA with probability 100%
  Tempfile successfully deleted.
06 -===- E:\Music\VА - Noise Terror 2 - World Wide Electronics - 2007\06 - Straftanz [feat. Myk Jung] - Burn Down Heaven.flac
  Extracted successfully
  Conclusion: This track looks like CDDA with probability 100%
  Tempfile successfully deleted.
07 -===- E:\Music\VА - Noise Terror 2 - World Wide Electronics - 2007\07 - Controlled Collapse - destiny [slavestage remix by Egoist].flac
  Extracted successfully
  Conclusion: This track looks like CDDA with probability 100%
  Tempfile successfully deleted.
08 -===- E:\Music\VА - Noise Terror 2 - World Wide Electronics - 2007\08 - Suicide Commando - Hate Me.flac
  Extracted successfully
  Conclusion: This track looks like CDDA with probability 100%
  Tempfile successfully deleted.
09 -===- E:\Music\VА - Noise Terror 2 - World Wide Electronics - 2007\09 - Asphyxia - Sense Of Decay.flac
  Extracted successfully
  Conclusion: This track looks like MPEG with probability 95%
  Tempfile successfully deleted.
10 -===- E:\Music\VА - Noise Terror 2 - World Wide Electronics - 2007\10 - Kombat Unit - We Are Machines.flac
  Extracted successfully
  Conclusion: This track looks like CDDA with probability 100%
  Tempfile successfully deleted.
11 -===- E:\Music\VА - Noise Terror 2 - World Wide Electronics - 2007\11 - Winter Soul - Reactor.flac
  Extracted successfully
  Conclusion: This track looks like CDDA with probability 100%
  Tempfile successfully deleted.
12 -===- E:\Music\VА - Noise Terror 2 - World Wide Electronics - 2007\12 - Reaxion Guerrilla - sacrifice [remixed by X-FUSION].flac
  Extracted successfully
  Conclusion: This track looks like CDDA with probability 100%
  Tempfile successfully deleted.
13 -===- E:\Music\VА - Noise Terror 2 - World Wide Electronics - 2007\13 - Grendel - judged ones [Fractured remix].flac
  Extracted successfully
  Conclusion: This track looks like MPEG with probability 89%
  Tempfile successfully deleted.
14 -===- E:\Music\VА - Noise Terror 2 - World Wide Electronics - 2007\14 - Sadiztik Injektion - Realize The Suicide.flac
  Extracted successfully
  Conclusion: This track looks like MPEG with probability 95%
  Tempfile successfully deleted.
15 -===- E:\Music\VА - Noise Terror 2 - World Wide Electronics - 2007\15 - Fix8-sed8 - minotaurus [man vs. animal mix by Cold Drive].flac
  Extracted successfully
  Conclusion: This track looks like CDDA with probability 100%
  Tempfile successfully deleted.
Finished at: суббота, 12. 02. 2011. - 18:54.53 (operation time: 0:08.29)
Правила, инструкции, FAQ!!!
Торрент  Добавлен [26 июн 2020, 17:07] Скачать торрент Магнет ссылка
Скачать торрент
[ Размер 98.08 КБ / Просмотров 4 ]

Статус
Проверен 
 
Размер  614.21 МБ
Приватный: Нет (DHT включён)
.torrent скачан  0
 


     Отправить личное сообщение
   
Страница 1 из 1
Показать сообщения за:  Поле сортировки  
Начать новую тему Ответить на тему


Сейчас этот форум просматривают: нет зарегистрированных пользователей и гости: 0


Вы не можете начинать темы
Вы не можете отвечать на сообщения
Вы не можете редактировать свои сообщения
Вы не можете удалять свои сообщения
Вы не можете добавлять вложения

Перейти:  
cron