Начать новую тему Ответить на тему
Статистика раздачи
Размер: 978.93 МБ | Добавлен: 26 июн 2020, 17:06 | Скачали: 0
Сидеров: 0  [0 байт/сек]    Личеров: 0  [0 байт/сек]
Пред. тема | След. тема 

Автор
Сообщение

СообщениеДобавлено: 26 июн 2020, 17:06 

Ответить с цитатой 

Various Artists - Industrial Revolution: 3rd Edition Rare & Unreleased




Жанр: EBM, Industrial, Noise, Experimental, Heavy Metal
Страна-производитель диска: US
Год издания диска: 1996
Издатель (лейбл): Cleopatra
Номер по каталогу: CLP 9732-2
Аудиокодек: FLAC (*.flac)
Тип рипа: tracks+.cue
Битрейт аудио: lossless
Источник (релизер): what.cd
Общая продолжительность звучания: 02:22:08
Наличие сканов в содержимом раздачи: нет
Продолжительность: 01:11:45
Треклист:
1-01 Electric Hellfire Club, The – Incubus (Leæther Strip Remix) [4:54]
1-02 Laibach – Panorama [4:50]
1-03 Frontline Assembly – Epidemic [5:57]
1-04 Clock DVA – Soundmirror (Reflected) [6:32]
1-05 Birmingham 6 – Policestate (Mutual Blade) [3:51]
1-06 Download – Mothersonne (Remixed By Newt) [7:04]
1-07 Razed In Black – What's Fair? (Regulacion) (Agony Mix) [5:07]
1-08 Die Krupps – Eggshell (Pressure Mix) [4:16]
1-09 Noise Box – The Night The Aliens Came In (Demo Mix) [4:52]
1-10 Einstürzende Neubauten – Yü-Gung (Adrian Sherwood Mix) [7:29]
1-11 Penal Colony – Third Life (Time Center Remix) [4:49]
1-12 Test Dept. – New World Order (Crusader Mix) [5:08 ]
1-13 Swamp Terrorists – Dive-Right Jab (Till You Drop) [4:02]
1-14 Controlled Bleeding – Scrap Metal [1:39]
Код:
Exact Audio Copy V0.99 prebeta 4 from 23. January 2008
EAC extraction logfile from 10. May 2009, 3:06
Various / Industrial Revolution - Third Edition (Disc 1)
Used drive  : TSSTcorpCD/DVDW SH-W162Z   Adapter: 5  ID: 0
Read mode               : Secure
Utilize accurate stream : Yes
Defeat audio cache      : Yes
Make use of C2 pointers : No
Read offset correction                      : 6
Overread into Lead-In and Lead-Out          : No
Fill up missing offset samples with silence : Yes
Delete leading and trailing silent blocks   : No
Null samples used in CRC calculations       : Yes
Used interface                              : Native Win32 interface for Win NT & 2000
Gap handling                                : Appended to previous track
Used output format              : User Defined Encoder
Selected bitrate                : 224 kBit/s
Quality                         : High
Add ID3 tag                     : No
Command line compressor         : C:\Program Files\Exact Audio Copy\Flac\flac.exe
Additional command line options : -V -8 -T "artist=%a" -T "title=%t" -T "album=%g" -T "date=%y" -T "tracknumber=%n" -T "genre=%m" %s
TOC of the extracted CD
     Track |   Start  |  Length  | Start sector | End sector
    ---------------------------------------------------------
        1  |  0:00.50 |  4:55.52 |        50    |    22226
        2  |  4:56.27 |  4:52.38 |     22227    |    44164
        3  |  9:48.65 |  5:58.62 |     44165    |    71076
        4  | 15:47.52 |  6:34.10 |     71077    |   100636
        5  | 22:21.62 |  3:52.53 |    100637    |   118089
        6  | 26:14.40 |  6:37.50 |    118090    |   147914
        7  | 32:52.15 |  6:09.20 |    147915    |   175609
        8  | 39:01.35 |  4:17.72 |    175610    |   194956
        9  | 43:19.32 |  4:54.50 |    194957    |   217056
       10  | 48:14.07 |  7:30.10 |    217057    |   250816
       11  | 55:44.17 |  4:51.00 |    250817    |   272641
       12  | 60:35.17 |  5:10.48 |    272642    |   295939
       13  | 65:45.65 |  4:21.22 |    295940    |   315536
       14  | 70:07.12 |  1:39.10 |    315537    |   322971
Track  1
     Filename H:\hear encoding\!compilations\industrial revolution - third edition flac\cd1\The Electric Hellfire Club - Industrial Revolution - Third Edition (Disc 1) - 01 - Incubus [Leaether Strip remix].wav
     Pre-gap length  0:00:02.50
     Peak level 100.0 %
     Track quality 100.0 %
     Test CRC AC5DA079
     Copy CRC AC5DA079
     Accurately ripped (confidence 3)  [EAA2D8ED]
     Copy OK
Track  2
     Filename H:\hear encoding\!compilations\industrial revolution - third edition flac\cd1\Laibach - Industrial Revolution - Third Edition (Disc 1) - 02 - Panorama.wav
     Pre-gap length  0:00:01.50
     Peak level 100.0 %
     Track quality 100.0 %
     Test CRC 6C582DDC
     Copy CRC 6C582DDC
     Accurately ripped (confidence 3)  [B694C172]
     Copy OK
Track  3
     Filename H:\hear encoding\!compilations\industrial revolution - third edition flac\cd1\Front Line Assembly - Industrial Revolution - Third Edition (Disc 1) - 03 - Epidemic.wav
     Pre-gap length  0:00:01.50
     Peak level 100.0 %
     Track quality 100.0 %
     Test CRC 4CC1E733
     Copy CRC 4CC1E733
     Accurately ripped (confidence 5)  [257116DA]
     Copy OK
Track  4
     Filename H:\hear encoding\!compilations\industrial revolution - third edition flac\cd1\Clock DVA - Industrial Revolution - Third Edition (Disc 1) - 04 - Soundmirror [Reflected].wav
     Pre-gap length  0:00:01.50
     Peak level 100.0 %
     Track quality 99.9 %
     Test CRC 81655946
     Copy CRC 81655946
     Accurately ripped (confidence 4)  [5C7C6658]
     Copy OK
Track  5
     Filename H:\hear encoding\!compilations\industrial revolution - third edition flac\cd1\Birmingham 6 - Industrial Revolution - Third Edition (Disc 1) - 05 - Policestate (Mutual Blade).wav
     Pre-gap length  0:00:01.50
     Peak level 100.0 %
     Track quality 100.0 %
     Test CRC 8A13D430
     Copy CRC 8A13D430
     Accurately ripped (confidence 4)  [D9039B7C]
     Copy OK
Track  6
     Filename H:\hear encoding\!compilations\industrial revolution - third edition flac\cd1\Download - Industrial Revolution - Third Edition (Disc 1) - 06 - Mothersonne [Remixed by NEWT].wav
     Pre-gap length  0:00:01.50
     Peak level 100.0 %
     Track quality 100.0 %
     Test CRC B1368BEE
     Copy CRC B1368BEE
     Accurately ripped (confidence 4)  [D0AE74B4]
     Copy OK
Track  7
     Filename H:\hear encoding\!compilations\industrial revolution - third edition flac\cd1\Razed In Black - Industrial Revolution - Third Edition (Disc 1) - 07 - What's fair  (Regulacion) [Agony remix].wav
     Pre-gap length  0:00:01.50
     Peak level 100.0 %
     Track quality 99.9 %
     Test CRC 96CCA484
     Copy CRC 96CCA484
     Accurately ripped (confidence 3)  [34A40B19]
     Copy OK
Track  8
     Filename H:\hear encoding\!compilations\industrial revolution - third edition flac\cd1\Die Krupps - Industrial Revolution - Third Edition (Disc 1) - 08 - Eggshell [Pressured mix].wav
     Pre-gap length  0:00:01.50
     Peak level 100.0 %
     Track quality 100.0 %
     Test CRC 63D97E0E
     Copy CRC 63D97E0E
     Accurately ripped (confidence 5)  [A5A0E7F9]
     Copy OK
Track  9
     Filename H:\hear encoding\!compilations\industrial revolution - third edition flac\cd1\Noise Box - Industrial Revolution - Third Edition (Disc 1) - 09 - The Night the Aliens Came In [Demo mix].wav
     Pre-gap length  0:00:01.50
     Peak level 100.0 %
     Track quality 100.0 %
     Test CRC B60BEDF6
     Copy CRC B60BEDF6
     Accurately ripped (confidence 3)  [FBFC3533]
     Copy OK
Track 10
     Filename H:\hear encoding\!compilations\industrial revolution - third edition flac\cd1\Einsturzende Neubauten - Industrial Revolution - Third Edition (Disc 1) - 10 - Yu-Gung [Adrian Sherwood mix].wav
     Pre-gap length  0:00:01.50
     Peak level 100.0 %
     Track quality 100.0 %
     Test CRC 6B588272
     Copy CRC 6B588272
     Accurately ripped (confidence 4)  [4FCBA34C]
     Copy OK
Track 11
     Filename H:\hear encoding\!compilations\industrial revolution - third edition flac\cd1\Penal Colony - Industrial Revolution - Third Edition (Disc 1) - 11 - Third Life [Time Center remix].wav
     Pre-gap length  0:00:01.50
     Peak level 100.0 %
     Track quality 100.0 %
     Test CRC 0C18E9FD
     Copy CRC 0C18E9FD
     Accurately ripped (confidence 3)  [3886DF16]
     Copy OK
Track 12
     Filename H:\hear encoding\!compilations\industrial revolution - third edition flac\cd1\Test Dept - Industrial Revolution - Third Edition (Disc 1) - 12 - New World Order [Crusader mix].wav
     Pre-gap length  0:00:01.50
     Peak level 100.0 %
     Track quality 100.0 %
     Test CRC 493E0745
     Copy CRC 493E0745
     Accurately ripped (confidence 3)  [325DFE97]
     Copy OK
Track 13
     Filename H:\hear encoding\!compilations\industrial revolution - third edition flac\cd1\Swamp Terrorists - Industrial Revolution - Third Edition (Disc 1) - 13 - Dive-Right Jab (Till You Drop) [Remix by.wav
     Pre-gap length  0:00:01.50
     Peak level 100.0 %
     Track quality 100.0 %
     Test CRC F47E56E6
     Copy CRC F47E56E6
     Accurately ripped (confidence 3)  [0EBFC493]
     Copy OK
Track 14
     Filename H:\hear encoding\!compilations\industrial revolution - third edition flac\cd1\Controlled Bleeding - Industrial Revolution - Third Edition (Disc 1) - 14 - Scrap Metal.wav
     Pre-gap length  0:00:01.50
     Peak level 100.0 %
     Track quality 99.8 %
     Test CRC 35A94846
     Copy CRC 35A94846
     Accurately ripped (confidence 3)  [B971F8C9]
     Copy OK
All tracks accurately ripped
No errors occurred
End of status report
Код:
REM GENRE Industrial
REM DATE 1996
REM DISCID E310D20E
REM COMMENT "ExactAudioCopy v0.99pb4"
PERFORMER "Various"
TITLE "Industrial Revolution - Third Edition (Disc 1)"
FILE "01 - The Electric Hellfire Club - Incubus [Leaether Strip remix].wav" WAVE
  TRACK 01 AUDIO
    TITLE "Incubus [Leaether Strip remix]"
    PERFORMER "The Electric Hellfire Club"
    PREGAP 00:00:50
    INDEX 01 00:00:00
  TRACK 02 AUDIO
    TITLE "Panorama"
    PERFORMER "Laibach"
    INDEX 00 04:54:02
FILE "02 - Laibach - Panorama.wav" WAVE
    INDEX 01 00:00:00
  TRACK 03 AUDIO
    TITLE "Epidemic"
    PERFORMER "Front Line Assembly"
    INDEX 00 04:50:63
FILE "03 - Front Line Assembly - Epidemic.wav" WAVE
    INDEX 01 00:00:00
  TRACK 04 AUDIO
    TITLE "Soundmirror [Reflected]"
    PERFORMER "Clock DVA"
    INDEX 00 05:57:12
FILE "04 - Clock DVA - Soundmirror [Reflected].wav" WAVE
    INDEX 01 00:00:00
  TRACK 05 AUDIO
    TITLE "Policestate (Mutual Blade)"
    PERFORMER "Birmingham 6"
    INDEX 00 06:32:35
FILE "05 - Birmingham 6 - Policestate (Mutual Blade).wav" WAVE
    INDEX 01 00:00:00
  TRACK 06 AUDIO
    TITLE "Mothersonne [Remixed by NEWT]"
    PERFORMER "Download"
    INDEX 00 03:51:03
FILE "06 - Download - Mothersonne [Remixed by NEWT].wav" WAVE
    INDEX 01 00:00:00
  TRACK 07 AUDIO
    TITLE "What's fair? (Regulacion) [Agony remix]"
    PERFORMER "Razed In Black"
    INDEX 00 06:36:00
FILE "07 - Razed In Black - What's fair (Regulacion) [Agony remix].wav" WAVE
    INDEX 01 00:00:00
  TRACK 08 AUDIO
    TITLE "Eggshell [Pressured mix]"
    PERFORMER "Die Krupps"
    INDEX 00 06:07:45
FILE "08 - Die Krupps - Eggshell [Pressured mix].wav" WAVE
    INDEX 01 00:00:00
  TRACK 09 AUDIO
    TITLE "The Night the Aliens Came In [Demo mix]"
    PERFORMER "Noise Box"
    INDEX 00 04:16:22
FILE "09 - Noise Box - The Night the Aliens Came In [Demo mix].wav" WAVE
    INDEX 01 00:00:00
  TRACK 10 AUDIO
    TITLE "Yu-Gung [Adrian Sherwood mix]"
    PERFORMER "Einsturzende Neubauten"
    INDEX 00 04:53:00
FILE "10 - Einsturzende Neubauten - Yu-Gung [Adrian Sherwood mix].wav" WAVE
    INDEX 01 00:00:00
  TRACK 11 AUDIO
    TITLE "Third Life [Time Center remix]"
    PERFORMER "Penal Colony"
    INDEX 00 07:28:35
FILE "11 - Penal Colony - Third Life [Time Center remix].wav" WAVE
    INDEX 01 00:00:00
  TRACK 12 AUDIO
    TITLE "New World Order [Crusader mix]"
    PERFORMER "Test Dept"
    INDEX 00 04:49:25
FILE "12 - Test Dept - New World Order [Crusader mix].wav" WAVE
    INDEX 01 00:00:00
  TRACK 13 AUDIO
    TITLE "Dive-Right Jab (Till You Drop) [Remix by"
    PERFORMER "Swamp Terrorists"
    INDEX 00 05:08:73
FILE "13 - Swamp Terrorists - Dive-Right Jab (Till You Drop) [Remix by.wav" WAVE
    INDEX 01 00:00:00
  TRACK 14 AUDIO
    TITLE "Scrap Metal"
    PERFORMER "Controlled Bleeding"
    INDEX 00 04:19:47
FILE "14 - Controlled Bleeding - Scrap Metal.wav" WAVE
    INDEX 01 00:00:00
Код:
AUDIOCHECKER v2.0 beta (build 457) - by Dester - opdester@freemail.hu
~~~~~~~~~~~~~~~~~~~~~~~~~~~~~~~~~~
-=== DO NOT EDIT THIS FILE! ===-
Path: ...\cd1
01 -=- 01 - The Electric Hellfire Club - Incubus [Leaether Strip remix].flac -=- CDDA (100%)
02 -=- 02 - Laibach - Panorama.flac -=- CDDA (100%)
03 -=- 03 - Front Line Assembly - Epidemic.flac -=- CDDA (100%)
04 -=- 04 - Clock DVA - Soundmirror [Reflected].flac -=- CDDA (100%)
05 -=- 05 - Birmingham 6 - Policestate (Mutual Blade).flac -=- CDDA (100%)
06 -=- 06 - Download - Mothersonne [Remixed by NEWT].flac -=- CDDA (100%)
07 -=- 07 - Razed In Black - What's fair (Regulacion) [Agony remix].flac -=- CDDA (100%)
08 -=- 08 - Die Krupps - Eggshell [Pressured mix].flac -=- CDDA (100%)
09 -=- 09 - Noise Box - The Night the Aliens Came In [Demo mix].flac -=- CDDA (100%)
10 -=- 10 - Einsturzende Neubauten - Yu-Gung [Adrian Sherwood mix].flac -=- MPEG (95%)
11 -=- 11 - Penal Colony - Third Life [Time Center remix].flac -=- CDDA (100%)
12 -=- 12 - Test Dept - New World Order [Crusader mix].flac -=- CDDA (100%)
13 -=- 13 - Swamp Terrorists - Dive-Right Jab (Till You Drop) [Remix by.flac -=- CDDA (100%)
14 -=- 14 - Controlled Bleeding - Scrap Metal.flac -=- CDDA (100%)
Summary 93,21% CDDA
83844996
Продолжительность: 01:10:22
Треклист:
2-01 Skinny Puppy – Haunted [9:14]
2-02 Psychic TV – Suspicious (T.H.D. Remix) [5:59]
2-03 Spahn Ranch – Vortex (Extended Mix) [5:19]
2-04 Chrome – Eyes In The Center (Extended Mix) [4:53]
2-05 Leæther Strip – No Rest For The Wicked (Video Version) [3:54]
2-06 Throbbing Gristle – Final Musak [5:26]
2-07 X-Marks The Pedwalk – The Trap (Second Enclosure) [4:57]
2-08 Killing Joke – Money Is Not Our God (Hideous Mix) [4:19]
2-09 Pygmy Children – Intensify (Fearless Remix) [6:24]
2-10 Die Form – Massochist 4 (Remix) [3:29]
2-11 Kill Switch...Klick – Fascist Smash (Punch Out Mix) [3:36]
2-12 Psychopomps – Meat Defeat [3:50]
2-13 Joined At The Head – The Kill [2:48]
2-14 Project Pitchfork – The Animal (Youthsad Mix) [5:49]
Код:
Exact Audio Copy V0.99 prebeta 4 from 23. January 2008
EAC extraction logfile from 10. May 2009, 4:02
Various / Industrial Revolution - Third edition [Disc 2]
Used drive  : TSSTcorpCD/DVDW SH-W162Z   Adapter: 5  ID: 0
Read mode               : Secure
Utilize accurate stream : Yes
Defeat audio cache      : Yes
Make use of C2 pointers : No
Read offset correction                      : 6
Overread into Lead-In and Lead-Out          : No
Fill up missing offset samples with silence : Yes
Delete leading and trailing silent blocks   : No
Null samples used in CRC calculations       : Yes
Used interface                              : Native Win32 interface for Win NT & 2000
Gap handling                                : Appended to previous track
Used output format              : User Defined Encoder
Selected bitrate                : 224 kBit/s
Quality                         : High
Add ID3 tag                     : No
Command line compressor         : C:\Program Files\Exact Audio Copy\Flac\flac.exe
Additional command line options : -V -8 -T "artist=%a" -T "title=%t" -T "album=%g" -T "date=%y" -T "tracknumber=%n" -T "genre=%m" %s
TOC of the extracted CD
     Track |   Start  |  Length  | Start sector | End sector
    ---------------------------------------------------------
        1  |  0:00.50 |  9:16.42 |        50    |    41791
        2  |  9:17.17 |  6:00.08 |     41792    |    68799
        3  | 15:17.25 |  5:21.52 |     68800    |    92926
        4  | 20:39.02 |  4:55.05 |     92927    |   115056
        5  | 25:34.07 |  3:55.18 |    115057    |   132699
        6  | 29:29.25 |  5:28.42 |    132700    |   157341
        7  | 34:57.67 |  4:59.03 |    157342    |   179769
        8  | 39:56.70 |  4:20.30 |    179770    |   199299
        9  | 44:17.25 |  6:25.72 |    199300    |   228246
       10  | 50:43.22 |  3:31.15 |    228247    |   244086
       11  | 54:14.37 |  3:38.05 |    244087    |   260441
       12  | 57:52.42 |  3:51.65 |    260442    |   277831
       13  | 61:44.32 |  2:50.53 |    277832    |   290634
       14  | 64:35.10 |  5:48.02 |    290635    |   316736
Track  1
     Filename H:\hear encoding\!compilations\industrial revolution - third edition flac\cd2\Skinny Puppy - Industrial Revolution - Third edition [Disc 2] - 01 - Haunted.wav
     Pre-gap length  0:00:02.50
     Suspicious position 0:01:30
     Peak level 100.0 %
     Track quality 99.2 %
     Test CRC 4BB1ADDD
     Copy CRC 8B5D2371
     Cannot be verified as accurate (confidence 4)  [C8B4C307], AccurateRip returned [70A9F7E4]
     Copy finished
Track  2
     Filename H:\hear encoding\!compilations\industrial revolution - third edition flac\cd2\Psychic TV - Industrial Revolution - Third edition [Disc 2] - 02 - Suspicious [T.H.D. remix].wav
     Pre-gap length  0:00:01.50
     Peak level 100.0 %
     Track quality 100.0 %
     Test CRC EA77F111
     Copy CRC EA77F111
     Accurately ripped (confidence 4)  [F33D2051]
     Copy OK
Track  3
     Filename H:\hear encoding\!compilations\industrial revolution - third edition flac\cd2\Spahn Ranch - Industrial Revolution - Third edition [Disc 2] - 03 - Vortex [Extended mix].wav
     Pre-gap length  0:00:01.50
     Peak level 100.0 %
     Track quality 100.0 %
     Test CRC 1AB797EF
     Copy CRC 1AB797EF
     Accurately ripped (confidence 4)  [528AF542]
     Copy OK
Track  4
     Filename H:\hear encoding\!compilations\industrial revolution - third edition flac\cd2\Chrome - Industrial Revolution - Third edition [Disc 2] - 04 - Eyes in the center [Extended mix].wav
     Pre-gap length  0:00:01.50
     Peak level 100.0 %
     Track quality 100.0 %
     Test CRC F9743C24
     Copy CRC F9743C24
     Accurately ripped (confidence 4)  [86F6C50E]
     Copy OK
Track  5
     Filename H:\hear encoding\!compilations\industrial revolution - third edition flac\cd2\Leaether Strip - Industrial Revolution - Third edition [Disc 2] - 05 - No rest for the wicked [Video version].wav
     Pre-gap length  0:00:01.50
     Peak level 100.0 %
     Track quality 100.0 %
     Test CRC 12E120D4
     Copy CRC 12E120D4
     Accurately ripped (confidence 4)  [C845319A]
     Copy OK
Track  6
     Filename H:\hear encoding\!compilations\industrial revolution - third edition flac\cd2\Throbbing Gristle - Industrial Revolution - Third edition [Disc 2] - 06 - Final muzak.wav
     Pre-gap length  0:00:01.50
     Peak level 100.0 %
     Track quality 100.0 %
     Test CRC 94E9C661
     Copy CRC 94E9C661
     Accurately ripped (confidence 4)  [6B6CC2D4]
     Copy OK
Track  7
     Filename H:\hear encoding\!compilations\industrial revolution - third edition flac\cd2\X-Marks The Pedwalk - Industrial Revolution - Third edition [Disc 2] - 07 - The trap [Second Enclosure].wav
     Pre-gap length  0:00:01.50
     Peak level 100.0 %
     Track quality 100.0 %
     Test CRC CA6DCD90
     Copy CRC CA6DCD90
     Accurately ripped (confidence 3)  [7AFC372C]
     Copy OK
Track  8
     Filename H:\hear encoding\!compilations\industrial revolution - third edition flac\cd2\Killing Joke - Industrial Revolution - Third edition [Disc 2] - 08 - Money is not our god [Hideous mix].wav
     Pre-gap length  0:00:01.50
     Peak level 100.0 %
     Track quality 100.0 %
     Test CRC 4CAF2859
     Copy CRC 4CAF2859
     Accurately ripped (confidence 3)  [03DE44AA]
     Copy OK
Track  9
     Filename H:\hear encoding\!compilations\industrial revolution - third edition flac\cd2\Pygmy Children - Industrial Revolution - Third edition [Disc 2] - 09 - Intensify [Fearless remix].wav
     Pre-gap length  0:00:01.50
     Peak level 100.0 %
     Track quality 100.0 %
     Test CRC 1CC73A01
     Copy CRC 1CC73A01
     Accurately ripped (confidence 2)  [A892F02A]
     Copy OK
Track 10
     Filename H:\hear encoding\!compilations\industrial revolution - third edition flac\cd2\Die Form - Industrial Revolution - Third edition [Disc 2] - 10 - Masochist 4 [Remix].wav
     Pre-gap length  0:00:01.50
     Peak level 100.0 %
     Track quality 99.9 %
     Test CRC D91EB949
     Copy CRC D91EB949
     Accurately ripped (confidence 3)  [C9C7A9F9]
     Copy OK
Track 11
     Filename H:\hear encoding\!compilations\industrial revolution - third edition flac\cd2\Kill Switch... Klick - Industrial Revolution - Third edition [Disc 2] - 11 - Fascist smash [Punch out mix].wav
     Pre-gap length  0:00:01.50
     Peak level 100.0 %
     Track quality 100.0 %
     Test CRC 5F62C0BD
     Copy CRC 5F62C0BD
     Accurately ripped (confidence 3)  [9D0795EC]
     Copy OK
Track 12
     Filename H:\hear encoding\!compilations\industrial revolution - third edition flac\cd2\Psychopomps - Industrial Revolution - Third edition [Disc 2] - 12 - Meat defeat.wav
     Pre-gap length  0:00:01.50
     Peak level 100.0 %
     Track quality 100.0 %
     Test CRC 4F49EFF6
     Copy CRC 4F49EFF6
     Accurately ripped (confidence 2)  [5090D0A4]
     Copy OK
Track 13
     Filename H:\hear encoding\!compilations\industrial revolution - third edition flac\cd2\Joined At The Head - Industrial Revolution - Third edition [Disc 2] - 13 - The kill.wav
     Pre-gap length  0:00:01.50
     Peak level 100.0 %
     Track quality 100.0 %
     Test CRC 658DD101
     Copy CRC 658DD101
     Accurately ripped (confidence 3)  [15080346]
     Copy OK
Track 14
     Filename H:\hear encoding\!compilations\industrial revolution - third edition flac\cd2\Project Pitchfork - Industrial Revolution - Third edition [Disc 2] - 14 - The animal [Youthsad mix].wav
     Pre-gap length  0:00:01.50
     Peak level 100.0 %
     Track quality 99.9 %
     Test CRC 9F29D0A5
     Copy CRC 9F29D0A5
     Accurately ripped (confidence 2)  [61F49AB5]
     Copy OK
13 track(s) accurately ripped
 1 track(s) could not be verified as accurate
Some tracks could not be verified as accurate
There were errors
End of status report
Код:
REM GENRE Industrial
REM DATE 1996
REM DISCID E6107F0E
REM COMMENT "ExactAudioCopy v0.99pb4"
PERFORMER "Various"
TITLE "Industrial Revolution - Third edition [Disc 2]"
FILE "01 - Skinny Puppy - Haunted.wav" WAVE
  TRACK 01 AUDIO
    TITLE "Haunted"
    PERFORMER "Skinny Puppy"
    PREGAP 00:00:50
    INDEX 01 00:00:00
  TRACK 02 AUDIO
    TITLE "Suspicious [T.H.D. remix]"
    PERFORMER "Psychic TV"
    INDEX 00 09:14:67
FILE "02 - Psychic TV - Suspicious [T.H.D. remix].wav" WAVE
    INDEX 01 00:00:00
  TRACK 03 AUDIO
    TITLE "Vortex [Extended mix]"
    PERFORMER "Spahn Ranch"
    INDEX 00 05:58:33
FILE "03 - Spahn Ranch - Vortex [Extended mix].wav" WAVE
    INDEX 01 00:00:00
  TRACK 04 AUDIO
    TITLE "Eyes in the center [Extended mix]"
    PERFORMER "Chrome"
    INDEX 00 05:20:02
FILE "04 - Chrome - Eyes in the center [Extended mix].wav" WAVE
    INDEX 01 00:00:00
  TRACK 05 AUDIO
    TITLE "No rest for the wicked [Video version]"
    PERFORMER "Leaether Strip"
    INDEX 00 04:53:30
FILE "05 - Leaether Strip - No rest for the wicked [Video version].wav" WAVE
    INDEX 01 00:00:00
  TRACK 06 AUDIO
    TITLE "Final muzak"
    PERFORMER "Throbbing Gristle"
    INDEX 00 03:53:43
FILE "06 - Throbbing Gristle - Final muzak.wav" WAVE
    INDEX 01 00:00:00
  TRACK 07 AUDIO
    TITLE "The trap [Second Enclosure]"
    PERFORMER "X-Marks The Pedwalk"
    INDEX 00 05:26:67
FILE "07 - X-Marks The Pedwalk - The trap [Second Enclosure].wav" WAVE
    INDEX 01 00:00:00
  TRACK 08 AUDIO
    TITLE "Money is not our god [Hideous mix]"
    PERFORMER "Killing Joke"
    INDEX 00 04:57:28
FILE "08 - Killing Joke - Money is not our god [Hideous mix].wav" WAVE
    INDEX 01 00:00:00
  TRACK 09 AUDIO
    TITLE "Intensify [Fearless remix]"
    PERFORMER "Pygmy Children"
    INDEX 00 04:18:55
FILE "09 - Pygmy Children - Intensify [Fearless remix].wav" WAVE
    INDEX 01 00:00:00
  TRACK 10 AUDIO
    TITLE "Masochist 4 [Remix]"
    PERFORMER "Die Form"
    INDEX 00 06:24:22
FILE "10 - Die Form - Masochist 4 [Remix].wav" WAVE
    INDEX 01 00:00:00
  TRACK 11 AUDIO
    TITLE "Fascist smash [Punch out mix]"
    PERFORMER "Kill Switch... Klick"
    INDEX 00 03:29:40
FILE "11 - Kill Switch... Klick - Fascist smash [Punch out mix].wav" WAVE
    INDEX 01 00:00:00
  TRACK 12 AUDIO
    TITLE "Meat defeat"
    PERFORMER "Psychopomps"
    INDEX 00 03:36:30
FILE "12 - Psychopomps - Meat defeat.wav" WAVE
    INDEX 01 00:00:00
  TRACK 13 AUDIO
    TITLE "The kill"
    PERFORMER "Joined At The Head"
    INDEX 00 03:50:15
FILE "13 - Joined At The Head - The kill.wav" WAVE
    INDEX 01 00:00:00
  TRACK 14 AUDIO
    TITLE "The animal [Youthsad mix]"
    PERFORMER "Project Pitchfork"
    INDEX 00 02:49:03
FILE "14 - Project Pitchfork - The animal [Youthsad mix].wav" WAVE
    INDEX 01 00:00:00
Код:
AUDIOCHECKER v2.0 beta (build 457) - by Dester - opdester@freemail.hu
~~~~~~~~~~~~~~~~~~~~~~~~~~~~~~~~~~
-=== DO NOT EDIT THIS FILE! ===-
Path: ...\cd2
01 -=- 01 - Skinny Puppy - Haunted.flac -=- CDDA (100%)
02 -=- 02 - Psychic TV - Suspicious [T.H.D. remix].flac -=- CDDA (100%)
03 -=- 03 - Spahn Ranch - Vortex [Extended mix].flac -=- CDDA (100%)
04 -=- 04 - Chrome - Eyes in the center [Extended mix].flac -=- CDDA (100%)
05 -=- 05 - Leaether Strip - No rest for the wicked [Video version].flac -=- CDDA (100%)
06 -=- 06 - Throbbing Gristle - Final muzak.flac -=- MPEG (100%)
07 -=- 07 - X-Marks The Pedwalk - The trap [Second Enclosure].flac -=- CDDA (100%)
08 -=- 08 - Killing Joke - Money is not our god [Hideous mix].flac -=- CDDA (100%)
09 -=- 09 - Pygmy Children - Intensify [Fearless remix].flac -=- CDDA (100%)
10 -=- 10 - Die Form - Masochist 4 [Remix].flac -=- CDDA (100%)
11 -=- 11 - Kill Switch... Klick - Fascist smash [Punch out mix].flac -=- CDDA (100%)
12 -=- 12 - Psychopomps - Meat defeat.flac -=- CDDA (100%)
13 -=- 13 - Joined At The Head - The kill.flac -=- CDDA (100%)
14 -=- 14 - Project Pitchfork - The animal [Youthsad mix].flac -=- CDDA (100%)
Summary 92,86% CDDA
4555620
Правила, инструкции, FAQ!!!
Торрент  Добавлен [26 июн 2020, 17:06] Скачать торрент Магнет ссылка
Скачать торрент
[ Размер 22.55 КБ / Просмотров 10 ]

Статус
Проверен 
 
Размер  978.93 МБ
Приватный: Нет (DHT включён)
.torrent скачан  0
 


     Отправить личное сообщение
   
Страница 1 из 1
Показать сообщения за:  Поле сортировки  
Начать новую тему Ответить на тему


Сейчас этот форум просматривают: нет зарегистрированных пользователей и гости: 0


Вы не можете начинать темы
Вы не можете отвечать на сообщения
Вы не можете редактировать свои сообщения
Вы не можете удалять свои сообщения
Вы не можете добавлять вложения

Перейти:  
cron