Начать новую тему Ответить на тему
Статистика раздачи
Размер: 1.11 ГБ | Добавлен: 26 июн 2020, 20:28 | Скачали: 0
Сидеров: 0  [0 байт/сек]    Личеров: 0  [0 байт/сек]
Пред. тема | След. тема 

Автор
Сообщение

СообщениеДобавлено: 26 июн 2020, 20:28 

Ответить с цитатой 

Nitzer Ebb - Body Of Work
Жанр: EBM, Industrial
Год выпуска диска: 2006
Производитель диска: US
Аудио кодек: FLAC
Тип рипа: tracks+.cue
Битрейт аудио: lossless
Продолжительность: 155:13 min
Трэклист:
1-01 Isn't It Funny How Your Body Works (3:47)
1-02 Warsaw Ghetto (3:48)
1-03 Murderous (3:35)
1-04 Let Your Body Learn (2:49)
Mixed By - Daniel Miller , Gareth Jones
1-05 Join In The Chant (5:25)
1-06 Control I'm Here (3:53)
1-07 Hearts And Minds (3:45)
1-08 Captivate (3:57)
1-09 Shame (3:19)
1-10 Lightning Man (4:14)
1-11 Fun To Be Had (4:43)
1-12 Getting Closer (4:14)
1-13 Family Man (3:55)
Engineer [Mix] - Martin Rex
Mixed By - Jaz Coleman
1-14 Come Alive (6:11)
Engineer [Mix] - Steve Lyon
1-15 I Give To You (5:09)
Arranged By [Orchestration] - Andrew Poppy
1-16 Godhead (4:29)
1-17 Ascend (3:31)
1-18 Kick It (3:38)
Engineer [Recordings] - Flood
Guitar [Additional] - Dr. Know
Mixed By - David Bianco
1-19 I Thought (3:46)
Engineer - Efren Herrera , Flood
Mixed By - Marc Saunders
Код:
EAC extraction logfile from 24. October 2006, 19:45 for CD
Nitzer Ebb / Body of work/ CD1
Used drive  : SONY    DVD-ROM DDU1611   Adapter: 1  ID: 1
Read mode   : Secure with NO C2, accurate stream, disable cache
Read offset correction : 594
Overread into Lead-In and Lead-Out : No
Used output format : C:\Program Files\FLAC\flac.exe   (User Defined Encoder)
                     320 kBit/s
                     Additional command line options : -V -8 -T "artist=%a" -T "title=%t" -T "album=%g" -T "date=%y" -T "tracknumber=%n" -T "genre=%m" %s
Other options      :
    Fill up missing offset samples with silence : Yes
    Delete leading and trailing silent blocks : No
    Installed external ASPI interface
Track  1
     Filename F:\Torrent Files\Nitzer Ebb - Body of Work\Disc 1\01 - Nitzer Ebb - Isn't it funny how your body works.wav
     Peak level 94.4 %
     Track quality 100.0 %
     Test CRC 6901143B
     Copy CRC 6901143B
     Copy OK
Track  2
     Filename F:\Torrent Files\Nitzer Ebb - Body of Work\Disc 1\02 - Nitzer Ebb - Warsaw ghetto.wav
     Peak level 94.4 %
     Track quality 100.0 %
     Test CRC A095B62D
     Copy CRC A095B62D
     Copy OK
Track  3
     Filename F:\Torrent Files\Nitzer Ebb - Body of Work\Disc 1\03 - Nitzer Ebb - Murderous.wav
     Peak level 94.4 %
     Track quality 100.0 %
     Test CRC C14D032E
     Copy CRC C14D032E
     Copy OK
Track  4
     Filename F:\Torrent Files\Nitzer Ebb - Body of Work\Disc 1\04 - Nitzer Ebb - Let your body learn.wav
     Peak level 94.4 %
     Track quality 99.9 %
     Test CRC B0CDC57C
     Copy CRC B0CDC57C
     Copy OK
Track  5
     Filename F:\Torrent Files\Nitzer Ebb - Body of Work\Disc 1\05 - Nitzer Ebb - Join in the chant.wav
     Peak level 94.4 %
     Track quality 100.0 %
     Test CRC 48E5412A
     Copy CRC 48E5412A
     Copy OK
Track  6
     Filename F:\Torrent Files\Nitzer Ebb - Body of Work\Disc 1\06 - Nitzer Ebb - Control i'm here.wav
     Peak level 94.4 %
     Track quality 100.0 %
     Test CRC A34496BB
     Copy CRC A34496BB
     Copy OK
Track  7
     Filename F:\Torrent Files\Nitzer Ebb - Body of Work\Disc 1\07 - Nitzer Ebb - Hearts and minds.wav
     Peak level 94.4 %
     Track quality 99.9 %
     Test CRC 03B939B1
     Copy CRC 03B939B1
     Copy OK
Track  8
     Filename F:\Torrent Files\Nitzer Ebb - Body of Work\Disc 1\08 - Nitzer Ebb - Captivate.wav
     Peak level 94.4 %
     Track quality 100.0 %
     Test CRC F78848D5
     Copy CRC F78848D5
     Copy OK
Track  9
     Filename F:\Torrent Files\Nitzer Ebb - Body of Work\Disc 1\09 - Nitzer Ebb - Shame.wav
     Peak level 94.4 %
     Track quality 100.0 %
     Test CRC 0B8D6797
     Copy CRC 0B8D6797
     Copy OK
Track 10
     Filename F:\Torrent Files\Nitzer Ebb - Body of Work\Disc 1\10 - Nitzer Ebb - Lightning man.wav
     Peak level 94.4 %
     Track quality 100.0 %
     Test CRC A8525398
     Copy CRC A8525398
     Copy OK
Track 11
     Filename F:\Torrent Files\Nitzer Ebb - Body of Work\Disc 1\11 - Nitzer Ebb - Fun to be had.wav
     Peak level 94.4 %
     Track quality 100.0 %
     Test CRC F77D8F19
     Copy CRC F77D8F19
     Copy OK
Track 12
     Filename F:\Torrent Files\Nitzer Ebb - Body of Work\Disc 1\12 - Nitzer Ebb - Getting closer.wav
     Peak level 94.4 %
     Track quality 100.0 %
     Test CRC F10A5AB1
     Copy CRC F10A5AB1
     Copy OK
Track 13
     Filename F:\Torrent Files\Nitzer Ebb - Body of Work\Disc 1\13 - Nitzer Ebb - Family man.wav
     Peak level 94.4 %
     Track quality 99.9 %
     Test CRC CF4E420A
     Copy CRC CF4E420A
     Copy OK
Track 14
     Filename F:\Torrent Files\Nitzer Ebb - Body of Work\Disc 1\14 - Nitzer Ebb - Come alive.wav
     Peak level 94.4 %
     Track quality 99.9 %
     Test CRC 241C1E55
     Copy CRC 241C1E55
     Copy OK
Track 15
     Filename F:\Torrent Files\Nitzer Ebb - Body of Work\Disc 1\15 - Nitzer Ebb - I give to you.wav
     Peak level 94.4 %
     Track quality 100.0 %
     Test CRC 687611BC
     Copy CRC 687611BC
     Copy OK
Track 16
     Filename F:\Torrent Files\Nitzer Ebb - Body of Work\Disc 1\16 - Nitzer Ebb - Godhead.wav
     Peak level 94.4 %
     Track quality 100.0 %
     Test CRC FC29D438
     Copy CRC FC29D438
     Copy OK
Track 17
     Filename F:\Torrent Files\Nitzer Ebb - Body of Work\Disc 1\17 - Nitzer Ebb - Ascend.wav
     Peak level 94.4 %
     Track quality 99.9 %
     Test CRC 0637F634
     Copy CRC 0637F634
     Copy OK
Track 18
     Filename F:\Torrent Files\Nitzer Ebb - Body of Work\Disc 1\18 - Nitzer Ebb - Kick it.wav
     Peak level 100.0 %
     Track quality 100.0 %
     Test CRC DDC5BD11
     Copy CRC DDC5BD11
     Copy OK
Track 19
     Filename F:\Torrent Files\Nitzer Ebb - Body of Work\Disc 1\19 - Nitzer Ebb - I thought.wav
     Peak level 100.0 %
     Track quality 99.9 %
     Test CRC 15C6D2AC
     Copy CRC 15C6D2AC
     Copy OK
No errors occured
End of status report
AUDIOCHECKER v2.0 beta (build 457) - by Dester - opdester@freemail.hu
~~~~~~~~~~~~~~~~~~~~~~~~~~~~~~~~~~
-=== DO NOT EDIT THIS FILE! ===-
Path: ...\CD1
01 -=- [01] Nitzer Ebb - Isn't It Funny How Your Body Works.flac -=- CDDA (100%)
02 -=- [02] Nitzer Ebb - Warsaw Ghetto.flac -=- CDDA (100%)
03 -=- [03] Nitzer Ebb - Murderous.flac -=- CDDA (100%)
04 -=- [04] Nitzer Ebb - Let Your Body Learn.flac -=- CDDA (100%)
05 -=- [05] Nitzer Ebb - Join In The Chant.flac -=- CDDA (100%)
06 -=- [06] Nitzer Ebb - Control I'm Here.flac -=- CDDA (100%)
07 -=- [07] Nitzer Ebb - Hearts And Minds.flac -=- CDDA (99%)
08 -=- [08] Nitzer Ebb - Captivate.flac -=- CDDA (100%)
09 -=- [09] Nitzer Ebb - Shame.flac -=- CDDA (99%)
10 -=- [10] Nitzer Ebb - Lightning Man.flac -=- CDDA (100%)
11 -=- [11] Nitzer Ebb - Fun To Be Had.flac -=- CDDA (100%)
12 -=- [12] Nitzer Ebb - Getting Closer.flac -=- CDDA (100%)
13 -=- [13] Nitzer Ebb - Family Man.flac -=- CDDA (100%)
14 -=- [14] Nitzer Ebb - Come Alive.flac -=- CDDA (100%)
15 -=- [15] Nitzer Ebb - I Give To You.flac -=- CDDA (100%)
16 -=- [16] Nitzer Ebb - Godhead.flac -=- CDDA (100%)
17 -=- [17] Nitzer Ebb - Ascend.flac -=- CDDA (100%)
18 -=- [18] Nitzer Ebb - Kick It.flac -=- CDDA (99%)
19 -=- [19] Nitzer Ebb - I Thought.flac -=- CDDA (99%)
Summary 99,79% CDDA
65154836
[Disc ID: 0034813a-02e74197-15125913]
Track [ CRC ] Status
01 [a5d59c0c] (10/10) Accurately ripped as in pressing(s) #1
02 [748f19f7] (10/10) Accurately ripped as in pressing(s) #1
03 [2d249bd1] (10/10) Accurately ripped as in pressing(s) #1
04 [6a886dca] (10/10) Accurately ripped as in pressing(s) #1
05 [c9aa841a] (10/10) Accurately ripped as in pressing(s) #1
06 [8702145c] (10/10) Accurately ripped as in pressing(s) #1
07 [9182eed7] (10/10) Accurately ripped as in pressing(s) #1
08 [911e22a1] (10/10) Accurately ripped as in pressing(s) #1
09 [034b6740] (10/10) Accurately ripped as in pressing(s) #1
10 [ad97736a] (10/10) Accurately ripped as in pressing(s) #1
11 [acc05d4c] (10/10) Accurately ripped as in pressing(s) #1
12 [ac2d7228] (10/10) Accurately ripped as in pressing(s) #1
13 [71a5af5f] (10/10) Accurately ripped as in pressing(s) #1
14 [4c392e9e] (10/10) Accurately ripped as in pressing(s) #1
15 [9d27337d] (10/10) Accurately ripped as in pressing(s) #1
16 [843bbccc] (10/10) Accurately ripped as in pressing(s) #1
17 [2099116d] (10/10) Accurately ripped as in pressing(s) #1
18 [fc540de8] (10/10) Accurately ripped as in pressing(s) #1
19 [33383f32] (10/10) Accurately ripped as in pressing(s) #1
2-01 Get Clean (5:17)
2-02 Join In The Chant (Gold!) (5:53)
Engineer [Remix] - John Fryer
2-03 Control I'm Here (Strategic Dancefloor Initiative Mix) (6:29)
Remix - Daniel Miller , Flood
2-04 Hearts And Minds (Mix Hypersonic) (6:06)
Engineer [Remix] - Mark Saunders
Remix - Daniel Miller , Nitzer Ebb
2-05 Shame (Mix Two) (5:58)
Remix - William Orbit
2-06 Captivate (William Orbit Mix) (6:18)
Remix - William Orbit
2-07 Backlash (William Orbit Mix) (6:15)
Producer - Phil Legg
2-08 Fun To Be Had (Long Mix) (7:16)
Remix - George Clinton , Stewart Hanley
2-09 Out Of Mind (Maitresse Mix) (3:57)
2-10 Ascend (Remix) (6:01)
Remix - Flood
2-11 Lakeside Drive (Remix) (5:21)
Remix - Flood
2-12 Kick It (Popular Music Mix) (3:54)
Remix - Bon Harris , Randy Wilson
2-13 I Thought (Final Sin) (8:25)
Remix - Pablo Castrati
Код:
EAC extraction logfile from 25. October 2006, 0:26 for CD
Nitzer Ebb / Body of Work (Disc 2)
Used drive  : SONY    DVD-ROM DDU1611   Adapter: 1  ID: 1
Read mode   : Secure with NO C2, accurate stream, disable cache
Read offset correction : 594
Overread into Lead-In and Lead-Out : No
Used output format : C:\Program Files\FLAC\flac.exe   (User Defined Encoder)
                     320 kBit/s
                     Additional command line options : -V -8 -T "artist=%a" -T "title=%t" -T "album=%g" -T "date=%y" -T "tracknumber=%n" -T "genre=%m" %s
Other options      :
    Fill up missing offset samples with silence : Yes
    Delete leading and trailing silent blocks : No
    Installed external ASPI interface
Track  1
     Filename F:\Torrent Files\Nitzer Ebb - Body of Work\Disc 2\01 - Nitzer Ebb - Get Clean.wav
     Peak level 100.0 %
     Track quality 99.9 %
     Test CRC 4C929F89
     Copy CRC 4C929F89
     Copy OK
Track  2
     Filename F:\Torrent Files\Nitzer Ebb - Body of Work\Disc 2\02 - Nitzer Ebb - Join in the Chant (Gold!).wav
     Peak level 100.0 %
     Track quality 100.0 %
     Test CRC 41A6BABF
     Copy CRC 41A6BABF
     Copy OK
Track  3
     Filename F:\Torrent Files\Nitzer Ebb - Body of Work\Disc 2\03 - Nitzer Ebb - Control I'm Here (Strategic Dancefloor Initiative Mix).wav
     Peak level 100.0 %
     Track quality 100.0 %
     Test CRC 5059907E
     Copy CRC 5059907E
     Copy OK
Track  4
     Filename F:\Torrent Files\Nitzer Ebb - Body of Work\Disc 2\04 - Nitzer Ebb - Hearts and Minds (Mix Hypersonic).wav
     Peak level 100.0 %
     Track quality 100.0 %
     Test CRC 7B76AF6A
     Copy CRC 7B76AF6A
     Copy OK
Track  5
     Filename F:\Torrent Files\Nitzer Ebb - Body of Work\Disc 2\05 - Nitzer Ebb - Shame (Mix Two).wav
     Peak level 100.0 %
     Track quality 100.0 %
     Test CRC 485BCC1E
     Copy CRC 485BCC1E
     Copy OK
Track  6
     Filename F:\Torrent Files\Nitzer Ebb - Body of Work\Disc 2\06 - Nitzer Ebb - Captivate (William Orbit Mix).wav
     Peak level 100.0 %
     Track quality 100.0 %
     Test CRC 6B6EA8C7
     Copy CRC 6B6EA8C7
     Copy OK
Track  7
     Filename F:\Torrent Files\Nitzer Ebb - Body of Work\Disc 2\07 - Nitzer Ebb - Backlash (William Orbit Mix).wav
     Peak level 100.0 %
     Track quality 100.0 %
     Test CRC B9B11EA5
     Copy CRC B9B11EA5
     Copy OK
Track  8
     Filename F:\Torrent Files\Nitzer Ebb - Body of Work\Disc 2\08 - Nitzer Ebb - Fun to Be Had (Long Mix).wav
     Peak level 100.0 %
     Track quality 99.9 %
     Test CRC 33381EF8
     Copy CRC 33381EF8
     Copy OK
Track  9
     Filename F:\Torrent Files\Nitzer Ebb - Body of Work\Disc 2\09 - Nitzer Ebb - Out of Mind (Maitresse Mix).wav
     Peak level 100.0 %
     Track quality 99.9 %
     Test CRC FED49747
     Copy CRC FED49747
     Copy OK
Track 10
     Filename F:\Torrent Files\Nitzer Ebb - Body of Work\Disc 2\10 - Nitzer Ebb - Ascend (Remix).wav
     Peak level 100.0 %
     Track quality 100.0 %
     Test CRC 0D51113D
     Copy CRC 0D51113D
     Copy OK
Track 11
     Filename F:\Torrent Files\Nitzer Ebb - Body of Work\Disc 2\11 - Nitzer Ebb - Lakeside Drive (Remix).wav
     Peak level 100.0 %
     Track quality 100.0 %
     Test CRC BB80CB47
     Copy CRC BB80CB47
     Copy OK
Track 12
     Filename F:\Torrent Files\Nitzer Ebb - Body of Work\Disc 2\12 - Nitzer Ebb - Kick It (Popular Music Mix).wav
     Peak level 100.0 %
     Track quality 100.0 %
     Test CRC 1DABBBB0
     Copy CRC 1DABBBB0
     Copy OK
Track 13
     Filename F:\Torrent Files\Nitzer Ebb - Body of Work\Disc 2\13 - Nitzer Ebb - I Thought (Final Sin).wav
     Peak level 100.0 %
     Track quality 100.0 %
     Test CRC 425F5A16
     Copy CRC 425F5A16
     Copy OK
No errors occured
End of status report
AUDIOCHECKER v2.0 beta (build 457) - by Dester - opdester@freemail.hu
~~~~~~~~~~~~~~~~~~~~~~~~~~~~~~~~~~
-=== DO NOT EDIT THIS FILE! ===-
Path: ...\CD2
01 -=- [01] Nitzer Ebb - Get Clean.flac -=- CDDA (100%)
02 -=- [02] Nitzer Ebb - Join In The Chant (Gold!).flac -=- CDDA (100%)
03 -=- [03] Nitzer Ebb - Control I'm Here (Strategic Dancefloor Initiative Mix).flac -=- CDDA (100%)
04 -=- [04] Nitzer Ebb - Hearts And Minds (Mix Hypersonic).flac -=- CDDA (100%)
05 -=- [05] Nitzer Ebb - Shame (Mix Two).flac -=- CDDA (100%)
06 -=- [06] Nitzer Ebb - Captivate (William Orbit Mix).flac -=- CDDA (100%)
07 -=- [07] Nitzer Ebb - Backlash (William Orbit Mix).flac -=- CDDA (100%)
08 -=- [08] Nitzer Ebb - Fun To Be Had (Long Mix).flac -=- ERROR
09 -=- [09] Nitzer Ebb - Out Of Mind (Maitresse Mix).flac -=- CDDA (100%)
10 -=- [10] Nitzer Ebb - Ascend (Remix).flac -=- CDDA (100%)
11 -=- [11] Nitzer Ebb - Lakeside Drive (Remix).flac -=- CDDA (100%)
12 -=- [12] Nitzer Ebb - Kick It (Popular Music Mix).flac -=- CDDA (100%)
13 -=- [13] Nitzer Ebb - I Thought (Final Sin).flac -=- CDDA (100%)
Summary 100,00% CDDA
263131444
[Disc ID: 0024cb95-01703b9e-bb12080d]
Track [ CRC ] Status
01 [9bccc15d] (08/08) Accurately ripped as in pressing(s) #1
02 [7dfa5f0a] (09/09) Accurately ripped as in pressing(s) #1
03 [f4a4f1a7] (09/09) Accurately ripped as in pressing(s) #1
04 [c5c29eb5] (09/09) Accurately ripped as in pressing(s) #1
05 [473c27ff] (09/09) Accurately ripped as in pressing(s) #1
06 [5f28f527] (09/09) Accurately ripped as in pressing(s) #1
07 [f6e2fe35] (09/09) Accurately ripped as in pressing(s) #1
08 [a4adc6ac] (09/09) Accurately ripped as in pressing(s) #1
09 [d0ba251f] (09/09) Accurately ripped as in pressing(s) #1
10 [6d2d27af] (09/09) Accurately ripped as in pressing(s) #1
11 [6dc6c4fa] (09/09) Accurately ripped as in pressing(s) #1
12 [b182791a] (09/09) Accurately ripped as in pressing(s) #1
13 [51766b78] (09/09) Accurately ripped as in pressing(s) #1
Доп. информация:
"Best of" compilation
Правила, инструкции, FAQ!!!
Торрент  Добавлен [26 июн 2020, 20:28] Скачать торрент Магнет ссылка
Скачать торрент
[ Размер 14.69 КБ / Просмотров 7 ]

Статус
Проверен 
 
Размер  1.11 ГБ
Приватный: Нет (DHT включён)
.torrent скачан  0
 


     Отправить личное сообщение
   
Страница 1 из 1
Показать сообщения за:  Поле сортировки  
Начать новую тему Ответить на тему


Сейчас этот форум просматривают: нет зарегистрированных пользователей и гости: 0


Вы не можете начинать темы
Вы не можете отвечать на сообщения
Вы не можете редактировать свои сообщения
Вы не можете удалять свои сообщения
Вы не можете добавлять вложения

Перейти:  
cron