Начать новую тему Ответить на тему
Статистика раздачи
Размер: 294.73 МБ | Добавлен: 26 июн 2020, 19:52 | Скачали: 0
Сидеров: 0  [0 байт/сек]    Личеров: 0  [0 байт/сек]
Пред. тема | След. тема 

Автор
Сообщение

СообщениеДобавлено: 26 июн 2020, 19:52 

Ответить с цитатой 

Nitzer Ebb - Belief
Жанр: EBM, Industrial
Год выпуска диска: 1989
Производитель диска: UK
Аудио кодек: APE
Тип рипа: image+.cue
Битрейт аудио: lossless
Продолжительность: 52:48
Трэклист:
01 Hearts And Minds
02 For Fun
03 Control I'm Here
04 Captivate
05 TWA
06 Blood Money
07 Shame
08 Drive
09 Without Belief
10 K.I.A. (PK Mix)
11 Control I'm Here (S.D.I. Mix)
12 Without Belief (Instrumental)
Доп. информация:
Label: Mute Records Ltd.
Catalog#: CD STUMM 61
Рип с фирм. CD + сканы
Exact Audio Copy V0.99 prebeta 4 from 23. January 2008
Отчёт EAC об извлечении, выполненном 13. июля 2008, 22:13
Nitzer Ebb / Belief
Дисковод: PLEXTOR DVD-ROM PX-116A2 Adapter: 3 ID: 1
Режим чтения : Достоверность
Использование точного потока : Да
Отключение кэша аудио : Да
Использование указателей C2 : Нет
Коррекция смещения при чтении : 102
Способность читать области Lead-in и Lead-out : Нет
Заполнение пропущенных сэмплов тишиной : Да
Удаление блоков с тишиной в начале и конце : Нет
При вычислениях CRC использовались нулевые сэмплы : Да
Интерфейс : Установленный внешний ASPI-интерфейс
Выходной формат : Внутренние WAV-операции
Формат сэмплов : 44.100 Гц; 16 бит; стерео
TOC извлечённого CD
Трек | Старт | Длительность | Начальный сектор | Конечный сектор
---------------------------------------------------------------------
1 | 0:00.32 | 3:46.10 | 32 | 16991
2 | 3:46.42 | 3:03.50 | 16992 | 30766
3 | 6:50.17 | 3:52.53 | 30767 | 48219
4 | 10:42.70 | 3:57.05 | 48220 | 65999
5 | 14:40.00 | 4:59.32 | 66000 | 88456
6 | 19:39.32 | 4:29.60 | 88457 | 108691
7 | 24:09.17 | 4:02.65 | 108692 | 126906
8 | 28:12.07 | 5:07.68 | 126907 | 149999
9 | 33:20.00 | 4:16.15 | 150000 | 169214
10 | 37:36.15 | 4:32.17 | 169215 | 189631
11 | 42:08.32 | 6:30.58 | 189632 | 218939
12 | 48:39.15 | 4:09.15 | 218940 | 237629
Характеристики диапазона извлечения и сообщения об ошибках
Выбранный диапазон
Имя файла D:\torrent1\Nitzer Ebb - Belief\Nitzer Ebb - Belief.wav
Пиковый уровень 100.0 %
Качество диапазона 100.0 %
CRC копии 94414DC4
Копирование... OK
Ошибок не произошло
AccurateRip: сводка
Трек 1 точность не определена (достоверность 5) [2574F97D], AccurateRip вернул [75750699]
Трек 2 точность не определена (достоверность 5) [27A5723A], AccurateRip вернул [A2D0B02C]
Трек 3 точность не определена (достоверность 5) [71226385], AccurateRip вернул [9F751B60]
Трек 4 точность не определена (достоверность 5) [1327B82C], AccurateRip вернул [923187A9]
Трек 5 точность не определена (достоверность 5) [E8993B7A], AccurateRip вернул [55B8D05A]
Трек 6 точность не определена (достоверность 5) [0443B6AA], AccurateRip вернул [7E387342]
Трек 7 точность не определена (достоверность 5) [33714C29], AccurateRip вернул [A56E5421]
Трек 8 точность не определена (достоверность 5) [96EC7263], AccurateRip вернул [89328D11]
Трек 9 точность не определена (достоверность 4) [8817A9CA], AccurateRip вернул [AD2BB61D]
Трек 10 точность не определена (достоверность 4) [655F40E2], AccurateRip вернул [4117B7BB]
Трек 11 точность не определена (достоверность 4) [DFEC4681], AccurateRip вернул [6B8F0873]
Трек 12 точность не определена (достоверность 5) [025CF502], AccurateRip вернул [08AC25CA]
Ни один трек не прошёл проверки на точность
В вашей базе может быть иной вариант штамповки диска
Конец отчёта
Правила, инструкции, FAQ!!!
Торрент  Добавлен [26 июн 2020, 19:52] Скачать торрент Магнет ссылка
Скачать торрент
[ Размер 12.29 КБ / Просмотров 11 ]

Статус
Проверен 
 
Размер  294.73 МБ
Приватный: Нет (DHT включён)
.torrent скачан  0
 


     Отправить личное сообщение
   
Страница 1 из 1
Показать сообщения за:  Поле сортировки  
Начать новую тему Ответить на тему


Сейчас этот форум просматривают: нет зарегистрированных пользователей и гости: 0


Вы не можете начинать темы
Вы не можете отвечать на сообщения
Вы не можете редактировать свои сообщения
Вы не можете удалять свои сообщения
Вы не можете добавлять вложения

Перейти:  
cron