Начать новую тему Ответить на тему
Статистика раздачи
Размер: 407.68 МБ | Добавлен: 26 июн 2020, 17:13 | Скачали: 0
Сидеров: 0  [0 байт/сек]    Личеров: 0  [0 байт/сек]
Пред. тема | След. тема 

Автор
Сообщение

СообщениеДобавлено: 26 июн 2020, 17:13 

Ответить с цитатой 

Neuzeit Syndrom - Traum-A

Жанр: EBM, Industrial
Носитель: CD
Страна-производитель диска: Germany
Год издания: 1994
Издатель (лейбл): Ausfahrt
Номер по каталогу: EFA 06325
Страна: Germany
Аудиокодек: FLAC (*.flac)
Тип рипа: image+.cue
Битрейт аудио: lossless
Продолжительность: 00:45:11
Источник (релизер): Собственный рип
Наличие сканов в содержимом раздачи: да, PNG 600dpi
Треклист
01. Prolog [00:09]
02. Traumwelt [07:25]
03. Das Glashaus [04:36]
04. Die Zeit Brennt [05:54]
05. Feuerwerk Der Psyche [03:39]
06. Die Besucher [06:33]
07. Gefangen Unter Eis [06:41]
08. Angst [05:32]
09. Hirntot [04:31]
10. Epilog [00:07]
Код:
Exact Audio Copy V1.0 beta 3 from 29. August 2011
Отчёт EAC об извлечении, выполненном 3. июля 2014, 18:44
Neuzeit Syndrom / Traum-A (EFA 06325)
Дисковод: PIONEER BD-RW   BDR-206   Adapter: 0  ID: 0
Режим чтения                 : Достоверность
Использование точного потока : Да
Отключение кэша аудио        : Да
Использование указателей C2  : Нет
Коррекция смещения при чтении                     : 667
Способность читать области Lead-in и Lead-out     : Нет
Заполнение пропущенных сэмплов тишиной            : Да
Удаление блоков с тишиной в начале и конце        : Нет
При вычислениях CRC использовались нулевые сэмплы : Да
Интерфейс                                         : Встроенный Win32-интерфейс для Win NT/2000
Выходной формат          : Пользовательский кодировщик
Выбранный битрейт        : 1024 kBit/s
Качество                 : Высокий
Добавление ID3-тега      : Нет
Утилита сжатия           : C:\Program Files (x86)\Exact Audio Copy\FLAC\FLAC.EXE
Дополнительные параметры : -T "COMMENT=Ripped by SergeyJD"-8 -V -T "ARTIST=%artist%" -T "TITLE=%title%" -T "ALBUM=%albumtitle%" -T "DATE=%year%" -T "TRACKNUMBER=%tracknr%" -T "GENRE=%genre%" -T "COMMENT=%comment%" -T "BAND=%albuminterpret%" -T "ALBUMARTIST=%albuminterpret%" -T "COMPOSER=%composer%" %haslyrics%--tag-from-file=LYRICS="%lyricsfile%"%haslyrics% -T "DISCNUMBER=%cdnumber%" -T "TOTALDISCS=%totalcds%" -T "TOTALTRACKS=%numtracks%" %hascover%--picture="%coverfile%"%hascover% %source% -o %dest%
TOC извлечённого CD
     Трек |   Старт  | Длительность | Начальный сектор | Конечный сектор
    ---------------------------------------------------------------------
       1  |  0:00.00 |    0:09.62   |           0      |        736
       2  |  0:09.62 |    7:25.25   |         737      |      34136
       3  |  7:35.12 |    4:36.30   |       34137      |      54866
       4  | 12:11.42 |    5:54.18   |       54867      |      81434
       5  | 18:05.60 |    3:39.12   |       81435      |      97871
       6  | 21:44.72 |    6:33.38   |       97872      |     127384
       7  | 28:18.35 |    6:41.50   |      127385      |     157509
       8  | 35:00.10 |    5:32.05   |      157510      |     182414
       9  | 40:32.15 |    4:31.65   |      182415      |     202804
      10  | 45:04.05 |    0:07.50   |      202805      |     203379
Характеристики диапазона извлечения и сообщения об ошибках
Выбранный диапазон
     Имя файла D:\РАЗДАЧИ!!!!\Neuzeit Syndrom - Traum-A - 1994\Neuzeit Syndrom - Traum-A (EFA 06325).wav
     Пиковый уровень 98.8 %
     Скорость извлечения 6.9 X
     Качество диапазона 100.0 %
     CRC теста 38AC077B
     CRC копии 38AC077B
     Копирование... OK
Ошибок не произошло
AccurateRip: сводка
Трек  1  : извлечено точно (доверие 2)  [1EAB9846]  (AR v2)
Трек  2  : извлечено точно (доверие 2)  [7A1F5902]  (AR v2)
Трек  3  : извлечено точно (доверие 2)  [3040AE4C]  (AR v2)
Трек  4  : извлечено точно (доверие 2)  [11A2F4F4]  (AR v2)
Трек  5  : извлечено точно (доверие 2)  [9FC4926F]  (AR v2)
Трек  6  : извлечено точно (доверие 2)  [FA47174C]  (AR v2)
Трек  7  : извлечено точно (доверие 2)  [1E7B2017]  (AR v2)
Трек  8  : извлечено точно (доверие 2)  [1B9BA2B5]  (AR v2)
Трек  9  : извлечено точно (доверие 2)  [9071A62B]  (AR v2)
Трек 10  : извлечено точно (доверие 2)  [C7F30FC9]  (AR v2)
Все треки извлечены точно
Конец отчёта
---- CUETools DB Plugin V2.1.4
[CTDB TOCID: IvhcX6OKKn_r_wjUwUsp0zTa.L0-] found
Submit result: IvhcX6OKKn_r_wjUwUsp0zTa.L0- has been confirmed
Track | CTDB Status
  1   | (2/2) Accurately ripped
  2   | (1/2) Accurately ripped
  3   | (2/2) Accurately ripped
  4   | (1/2) Accurately ripped
  5   | (2/2) Accurately ripped
  6   | (2/2) Accurately ripped
  7   | (2/2) Accurately ripped
  8   | (2/2) Accurately ripped
  9   | (2/2) Accurately ripped
 10   | (2/2) Accurately ripped
==== Контрольная сумма отчёта 1C18BBC42DED70510C39A2C130ED46FB74C919E1677CAA14CB2ECEEF30521F00 ====
Код:
REM GENRE "EBM, Industrial"
REM DATE 1994
REM DISCID 640A970A
REM COMMENT "ExactAudioCopy v1.0b3"
PERFORMER "Neuzeit Syndrom"
TITLE "Traum-A (EFA 06325)"
FILE "Neuzeit Syndrom - Traum-A (EFA 06325).flac" WAVE
  TRACK 01 AUDIO
    TITLE "Prolog"
    PERFORMER "Neuzeit Syndrom"
    INDEX 01 00:00:00
  TRACK 02 AUDIO
    TITLE "Traumwelt"
    PERFORMER "Neuzeit Syndrom"
    INDEX 01 00:09:62
  TRACK 03 AUDIO
    TITLE "Das Glashaus"
    PERFORMER "Neuzeit Syndrom"
    INDEX 01 07:35:12
  TRACK 04 AUDIO
    TITLE "Die Zeit Brennt"
    PERFORMER "Neuzeit Syndrom"
    INDEX 01 12:11:42
  TRACK 05 AUDIO
    TITLE "Feuerwerk Der Psyche"
    PERFORMER "Neuzeit Syndrom"
    INDEX 01 18:05:60
  TRACK 06 AUDIO
    TITLE "Die Besucher"
    PERFORMER "Neuzeit Syndrom"
    INDEX 01 21:44:72
  TRACK 07 AUDIO
    TITLE "Gefangen Unter Eis"
    PERFORMER "Neuzeit Syndrom"
    INDEX 01 28:18:35
  TRACK 08 AUDIO
    TITLE "Angst"
    PERFORMER "Neuzeit Syndrom"
    INDEX 01 35:00:10
  TRACK 09 AUDIO
    TITLE "Hirntot"
    PERFORMER "Neuzeit Syndrom"
    INDEX 01 40:32:15
  TRACK 10 AUDIO
    TITLE "Epilog"
    PERFORMER "Neuzeit Syndrom"
    INDEX 01 45:04:05
Код:
-----------------------
DON'T MODIFY THIS FILE
-----------------------
PERFORMER: auCDtect Task Manager, ver. 1.5.1RC6 build 1.5.1.7
Copyright (c) 2008-2010 y-soft. All rights reserved
[url=http://y-soft.org]http://y-soft.org[/url]
ANALYZER: auCDtect: CD records authenticity detector, version 0.8.2
Copyright (c) 2004 Oleg Berngardt. All rights reserved.
Copyright (c) 2004 Alexander Djourik. All rights reserved.
FILE: Neuzeit Syndrom - Traum-A (EFA 06325).flac
  Size: 310301537 Hash: A7EDF527391D35F0BE76DCDECCA664D8 Accuracy: -m0
  Conclusion: CDDA 100%
  Signature: C31BB3AF8D2374099BCDD62FEC36F98E715BF229
foobar2000 1.2.3 / Замер динамического диапазона (DR) 1.1.1
Дата отчёта: 2014-07-03 19:57:12
--------------------------------------------------------------------------------
Анализ: Neuzeit Syndrom / Traum-A (EFA 06325)
--------------------------------------------------------------------------------
DR Пики RMS Продолжительность трека
--------------------------------------------------------------------------------
DR16 -4.79 дБ -24.61 дБ 0:10 01-Prolog
DR9 -0.10 дБ -10.71 дБ 7:25 02-Traumwelt
DR10 -0.10 дБ -11.42 дБ 4:36 03-Das Glashaus
DR9 -0.10 дБ -11.29 дБ 5:54 04-Die Zeit Brennt
DR9 -0.10 дБ -10.99 дБ 3:39 05-Feuerwerk Der Psyche
DR11 -0.10 дБ -13.33 дБ 6:34 06-Die Besucher
DR9 -0.10 дБ -10.94 дБ 6:42 07-Gefangen Unter Eis
DR12 -1.16 дБ -15.36 дБ 5:32 08-Angst
DR10 -0.10 дБ -10.88 дБ 4:32 09-Hirntot
DR17 -5.33 дБ -24.60 дБ 0:08 10-Epilog
--------------------------------------------------------------------------------
Количество треков: 10
Реальные значения DR: DR11
Частота: 44100 Гц
Каналов: 2
Разрядность: 16
Битрейт: 915 кбит/с
Кодек: FLAC
================================================================================
Правила, инструкции, FAQ!!!
Торрент  Добавлен [26 июн 2020, 17:13] Скачать торрент Магнет ссылка
Скачать торрент
[ Размер 16.94 КБ / Просмотров 3 ]

Статус
Проверен 
 
Размер  407.68 МБ
Приватный: Нет (DHT включён)
.torrent скачан  0
 


     Отправить личное сообщение
   
Страница 1 из 1
Показать сообщения за:  Поле сортировки  
Начать новую тему Ответить на тему


Сейчас этот форум просматривают: нет зарегистрированных пользователей и гости: 0


Вы не можете начинать темы
Вы не можете отвечать на сообщения
Вы не можете редактировать свои сообщения
Вы не можете удалять свои сообщения
Вы не можете добавлять вложения

Перейти:  
cron