Начать новую тему Ответить на тему
Статистика раздачи
Размер: 398.67 МБ | Добавлен: 26 июн 2020, 17:04 | Скачали: 0
Сидеров: 0  [0 байт/сек]    Личеров: 0  [0 байт/сек]
Пред. тема | След. тема 

Автор
Сообщение

СообщениеДобавлено: 26 июн 2020, 17:04 

Ответить с цитатой 

Negative Format - Pathologic Syndrome
Жанр: EBM, Industrial
Год выпуска диска: 1997
Производитель диска: US
Аудио кодек: FLAC
Тип рипа: tracks+.cue
Битрейт аудио: lossless
Трэклист:
1 Syndrome (1:17)
2 Moral Void (4:22)
3 Prey For The Dead (4:49)
4 Afterlife (4:03)
5 Base Rate Area (5:12)
6 Sandstone Banquet (5:41)
7 Phixation (4:10)
8 Conformance Test (5:54)
9 White Walls Turn Red (5:02)
10 Embedded Thought Process (4:14)
11 Constant Flood (5:21)
12 The Ritual Of The Machine (Pagan Mix) (3:43)
13 Barriers Rise (5:03)
14 Last Response (2:30)
Доп. информация:
Syrup 0.9.9.44, Track.cfg v.0992
Exact Audio Copy V0.99 prebeta 3 from 28. July 2007
EAC extraction logfile from 14. April 2008, 12:24
Negative Format / Pathologic Syndrome
Used drive : TSSTcorpCDDVDW SH-S203B Adapter: 2 ID: 2
Read mode : Secure
Utilize accurate stream : Yes
Defeat audio cache : No
Make use of C2 pointers : No
Read offset correction : 6
Overread into Lead-In and Lead-Out : No
Fill up missing offset samples with silence : Yes
Delete leading and trailing silent blocks : No
Null samples used in CRC calculations : Yes
Used interface : Native Win32 interface for Win NT & 2000
Gap handling : Appended to previous track
Used output format : User Defined Encoder
Selected bitrate : 128 kBit/s
Quality : High
Add ID3 tag : No
Command line compressor : C:\Program Files\Exact Audio Copy\Syrup\Syrup.exe
Additional command line options : REACT %o %s %d "%a" "%g" "%t" "%n" "%x" "%y" "%m" "%e" "%f" "%b" %r
TOC of the extracted CD
Track | Start | Length | Start sector | End sector
---------------------------------------------------------
1 | 0:00.00 | 1:17.02 | 0 | 5776
2 | 1:17.02 | 4:22.10 | 5777 | 25436
3 | 5:39.12 | 4:49.15 | 25437 | 47126
4 | 10:28.27 | 4:03.46 | 47127 | 65397
5 | 14:31.73 | 5:12.34 | 65398 | 88831
6 | 19:44.32 | 5:41.32 | 88832 | 114438
7 | 25:25.64 | 4:10.43 | 114439 | 133231
8 | 29:36.32 | 5:54.59 | 133232 | 159840
9 | 35:31.16 | 5:02.03 | 159841 | 182493
10 | 40:33.19 | 4:14.42 | 182494 | 201585
11 | 44:47.61 | 5:21.39 | 201586 | 225699
12 | 50:09.25 | 3:43.29 | 225700 | 242453
13 | 53:52.54 | 5:03.13 | 242454 | 265191
14 | 58:55.67 | 2:30.05 | 265192 | 276446
Track 1
Filename C:\DOCUME~1\teh\LOCALS~1\Temp\Syrup\Negative Format - Pathologic Syndrome - 01 - Syndrome.wav
Pre-gap length 0:00:02.00
Peak level 78.0 %
Track quality 99.8 %
Test CRC 12477A72
Copy CRC 12477A72
Accurately ripped (confidence 3) [6564D150]
Copy OK
Track 2
Filename C:\DOCUME~1\teh\LOCALS~1\Temp\Syrup\Negative Format - Pathologic Syndrome - 02 - Moral Void.wav
Peak level 92.9 %
Track quality 100.0 %
Test CRC C2468A3C
Copy CRC C2468A3C
Accurately ripped (confidence 3) [8A4ADC95]
Copy OK
Track 3
Filename C:\DOCUME~1\teh\LOCALS~1\Temp\Syrup\Negative Format - Pathologic Syndrome - 03 - Prey For The Dead.wav
Peak level 100.0 %
Track quality 99.9 %
Test CRC 14935B4E
Copy CRC 14935B4E
Accurately ripped (confidence 3) [D796CEF7]
Copy OK
Track 4
Filename C:\DOCUME~1\teh\LOCALS~1\Temp\Syrup\Negative Format - Pathologic Syndrome - 04 - Afterlife.wav
Peak level 89.0 %
Track quality 100.0 %
Test CRC DFAD6783
Copy CRC DFAD6783
Accurately ripped (confidence 3) [969BB502]
Copy OK
Track 5
Filename C:\DOCUME~1\teh\LOCALS~1\Temp\Syrup\Negative Format - Pathologic Syndrome - 05 - Base Rate Area.wav
Peak level 100.0 %
Track quality 99.9 %
Test CRC 23D89D2D
Copy CRC 23D89D2D
Accurately ripped (confidence 3) [EC40BC2B]
Copy OK
Track 6
Filename C:\DOCUME~1\teh\LOCALS~1\Temp\Syrup\Negative Format - Pathologic Syndrome - 06 - Sandstone Banquet.wav
Peak level 100.0 %
Track quality 100.0 %
Test CRC 21444CD0
Copy CRC 21444CD0
Accurately ripped (confidence 3) [6D27CF8C]
Copy OK
Track 7
Filename C:\DOCUME~1\teh\LOCALS~1\Temp\Syrup\Negative Format - Pathologic Syndrome - 07 - Phixation.wav
Peak level 97.1 %
Track quality 100.0 %
Test CRC 7F848B85
Copy CRC 7F848B85
Accurately ripped (confidence 3) [E57408F6]
Copy OK
Track 8
Filename C:\DOCUME~1\teh\LOCALS~1\Temp\Syrup\Negative Format - Pathologic Syndrome - 08 - Conformance Test.wav
Peak level 99.1 %
Track quality 100.0 %
Test CRC 6B6B9C04
Copy CRC 6B6B9C04
Accurately ripped (confidence 3) [9DB22595]
Copy OK
Track 9
Filename C:\DOCUME~1\teh\LOCALS~1\Temp\Syrup\Negative Format - Pathologic Syndrome - 09 - White Walls Turn Red.wav
Peak level 91.8 %
Track quality 100.0 %
Test CRC 73C5B69B
Copy CRC 73C5B69B
Accurately ripped (confidence 3) [068CFD85]
Copy OK
Track 10
Filename C:\DOCUME~1\teh\LOCALS~1\Temp\Syrup\Negative Format - Pathologic Syndrome - 10 - Embedded Thought Process.wav
Peak level 98.2 %
Track quality 100.0 %
Test CRC 7AF095C0
Copy CRC 7AF095C0
Accurately ripped (confidence 3) [85E367A7]
Copy OK
Track 11
Filename C:\DOCUME~1\teh\LOCALS~1\Temp\Syrup\Negative Format - Pathologic Syndrome - 11 - Constant Flood.wav
Peak level 100.0 %
Track quality 100.0 %
Test CRC 64F4647E
Copy CRC 64F4647E
Accurately ripped (confidence 3) [7044F5A4]
Copy OK
Track 12
Filename C:\DOCUME~1\teh\LOCALS~1\Temp\Syrup\Negative Format - Pathologic Syndrome - 12 - The Ritual Of The Machine (pagan mix).wav
Peak level 95.8 %
Track quality 100.0 %
Test CRC C395DD70
Copy CRC C395DD70
Accurately ripped (confidence 3) [39253D59]
Copy OK
Track 13
Filename C:\DOCUME~1\teh\LOCALS~1\Temp\Syrup\Negative Format - Pathologic Syndrome - 13 - Barriers Rise.wav
Peak level 89.4 %
Track quality 99.9 %
Test CRC 7C72C44C
Copy CRC 7C72C44C
Accurately ripped (confidence 3) [5D0080D5]
Copy OK
Track 14
Filename C:\DOCUME~1\teh\LOCALS~1\Temp\Syrup\Negative Format - Pathologic Syndrome - 14 - Last Response.wav
Peak level 72.8 %
Track quality 100.0 %
Test CRC 7448254E
Copy CRC 7448254E
Accurately ripped (confidence 3) [B27E5AC0]
Copy OK
All tracks accurately ripped
No errors occurred
End of status report
Label: Hypnotic Trancez Music
Catalog#: HTMCD003
Artwork By - Alex Matheu
Lyrics By - Alex Matheu
Правила, инструкции, FAQ!!!
Торрент  Добавлен [26 июн 2020, 17:04] Скачать торрент Магнет ссылка
Скачать торрент
[ Размер 17.22 КБ / Просмотров 4 ]

Статус
Проверен 
 
Размер  398.67 МБ
Приватный: Нет (DHT включён)
.torrent скачан  0
 


     Отправить личное сообщение
   
Страница 1 из 1
Показать сообщения за:  Поле сортировки  
Начать новую тему Ответить на тему


Сейчас этот форум просматривают: нет зарегистрированных пользователей и гости: 0


Вы не можете начинать темы
Вы не можете отвечать на сообщения
Вы не можете редактировать свои сообщения
Вы не можете удалять свои сообщения
Вы не можете добавлять вложения

Перейти:  
cron