Начать новую тему Ответить на тему
Статистика раздачи
Размер: 312.5 МБ | Добавлен: 26 июн 2020, 20:26 | Скачали: 0
Сидеров: 1  [0 байт/сек]    Личеров: 0  [0 байт/сек]
Пред. тема | След. тема 

Автор
Сообщение

СообщениеДобавлено: 26 июн 2020, 20:26 

Ответить с цитатой 

Nature Destroyed - Shades
Жанр: EBM industrial
Год выпуска диска: 2002
Производитель диска: (Matrix Cube, Germany)
Аудио кодек: FLAC
Тип рипа: image+.cue
Битрейт аудио: lossless
Продолжительность: 41:26.35
Треклист:
01. Enter The Realm [2:57]
02. Dream Of Fear [3:55]
03. Word Of Trust [4:35]
04. Unforeseen Desire [4:18]
05. Shades [4:20]
06. Bound [4:32]
07. Imprisoned [4:30]
08. Cold Vengeance [4:10]
09. Disease [3:59]
10. Leaving The Shadow [4:10]
Источник: Физический носитель
Код:
Exact Audio Copy V0.99 prebeta 5 from 4. May 2009
Отчёт EAC об извлечении, выполненном 14. августа 2010, 13:17
Nature Destroyed / Shades
Дисковод: Optiarc DVD RW AD-7173A   Adapter: 0  ID: 0
Режим чтения                 : Достоверность
Использование точного потока : Да
Отключение кэша аудио        : Да
Использование указателей C2  : Нет
Коррекция смещения при чтении                     : 48
Способность читать области Lead-in и Lead-out     : Нет
Заполнение пропущенных сэмплов тишиной            : Да
Удаление блоков с тишиной в начале и конце        : Нет
При вычислениях CRC использовались нулевые сэмплы : Да
Интерфейс                                         : Установленный внешний ASPI-интерфейс
Выходной формат          : Пользовательский кодировщик
Выбранный битрейт        : 1024 kBit/s
Качество                 : Высокий
Добавление ID3-тэга      : Нет
Утилита сжатия           : C:\Program Files\Exact Audio Copy\flac.exe
Дополнительные параметры : -6 -V -T "ARTIST=%a" -T "TITLE=%t" -T "ALBUM=%g" -T "DATE=%y" -T "TRACKNUMBER=%n" -T "GENRE=%m" -T "COMMENT=%e" %s -o %d
TOC извлечённого CD
     Трек |   Старт  | Длительность | Начальный сектор | Конечный сектор
    ---------------------------------------------------------------------
       1  |  0:00.00 |    2:56.47   |           0      |      13246
       2  |  2:56.47 |    3:55.37   |       13247      |      30908
       3  |  6:52.09 |    4:34.57   |       30909      |      51515
       4  | 11:26.66 |    4:18.24   |       51516      |      70889
       5  | 15:45.15 |    4:19.72   |       70890      |      90386
       6  | 20:05.12 |    4:32.34   |       90387      |     110820
       7  | 24:37.46 |    4:29.40   |      110821      |     131035
       8  | 29:07.11 |    4:10.32   |      131036      |     149817
       9  | 33:17.43 |    3:58.42   |      149818      |     167709
      10  | 37:16.10 |    4:10.25   |      167710      |     186484
Характеристики диапазона извлечения и сообщения об ошибках
Выбранный диапазон
     Имя файла H:\СКАЧКА\FLAC\1 TORRENT\Nature Destroyed - Shades.wav
     Пиковый уровень 97.7 %
     Качество диапазона 100.0 %
     CRC теста A0CCD304
     CRC копии A0CCD304
     Копирование... OK
Ошибок не произошло
AccurateRip: сводка
Трек  1  точное извлечение (доверие 4)  [4E50C530]
Трек  2  точное извлечение (доверие 4)  [2BB10195]
Трек  3  точное извлечение (доверие 4)  [5796F700]
Трек  4  точное извлечение (доверие 4)  [6F7427A6]
Трек  5  точное извлечение (доверие 4)  [BE8C9361]
Трек  6  точное извлечение (доверие 4)  [636396B9]
Трек  7  точное извлечение (доверие 4)  [1CAC555F]
Трек  8  точное извлечение (доверие 4)  [E0CD61E0]
Трек  9  точное извлечение (доверие 4)  [EE09A362]
Трек 10  точное извлечение (доверие 4)  [99D0A756]
Все треки извлечены точно
Конец отчёта
Хочешь скачать, но не можешь из-за отсутствия сидов - пиши в личку!
Правила, инструкции, FAQ!!!
Торрент  Добавлен [26 июн 2020, 20:26] Скачать торрент Магнет ссылка
Скачать торрент
[ Размер 13.29 КБ / Просмотров 13 ]

Статус
Проверен 
 
Размер  312.5 МБ
Приватный: Нет (DHT включён)
.torrent скачан  0
 


     Отправить личное сообщение
   
Страница 1 из 1
Показать сообщения за:  Поле сортировки  
Начать новую тему Ответить на тему


Сейчас этот форум просматривают: нет зарегистрированных пользователей и гости: 0


Вы не можете начинать темы
Вы не можете отвечать на сообщения
Вы не можете редактировать свои сообщения
Вы не можете удалять свои сообщения
Вы не можете добавлять вложения

Перейти:  
cron