Начать новую тему Ответить на тему
Статистика раздачи
Размер: 371.76 МБ | Добавлен: 26 июн 2020, 17:49 | Скачали: 0
Сидеров: 0  [0 байт/сек]    Личеров: 0  [0 байт/сек]
Пред. тема | След. тема 

Автор
Сообщение

СообщениеДобавлено: 26 июн 2020, 17:49 

Ответить с цитатой 

Nature Destroyed - Hassliebe
Жанр: EBM industrial
Год выпуска диска: 2009
Производитель диска: (Codeline Records, Germany)
Аудио кодек: FLAC
Тип рипа: image+.cue
Битрейт аудио: lossless
Продолжительность: 47:31.01
Трэклист:
01. Shadow [1:59]
02. Blind [5:06]
03. Hassliebe [5:55]
04. Rage [4:58]
05. Zeitraum [4:17]
06. The End [4:33]
07. Last Resort [4:35]
08. Broken Reality [4:39]
09. Tagtraum [3:04]
10. Self Inflicted [4:12]
11. Last Resort (remix by Illusion Of Light) [4:11]
Источник: Физический носитель
Код:
Exact Audio Copy V0.99 prebeta 4 from 23. January 2008
Отчёт EAC об извлечении, выполненном 8. августа 2009, 18:08
Nature Destroyed / Hassliebe
Дисковод: Optiarc DVD RW AD-7173A   Adapter: 0  ID: 0
Режим чтения                 : Достоверность
Использование точного потока : Да
Отключение кэша аудио        : Да
Использование указателей C2  : Нет
Коррекция смещения при чтении                     : 48
Способность читать области Lead-in и Lead-out     : Нет
Заполнение пропущенных сэмплов тишиной            : Да
Удаление блоков с тишиной в начале и конце        : Нет
При вычислениях CRC использовались нулевые сэмплы : Да
Интерфейс                                         : Встроенный Win32-интерфейс для Win NT/2000
Выходной формат          : Пользовательский кодировщик
Выбранный битрейт        : 1024 kBit/s
Качество                 : Высокий
Добавление ID3-тэга      : Нет
Утилита сжатия           : C:\Program Files\Exact Audio Copy\Flac\flac.exe
Дополнительные параметры : -V -6 -T "artist=%a" -T "title=%t" -T "album=%g" -T "date=%y" -T "tracknumber=%n" -T "genre=%m" %s
TOC извлечённого CD
     Трек |   Старт  | Длительность | Начальный сектор | Конечный сектор
    ---------------------------------------------------------------------
       1  |  0:00.00 |    1:59.36   |           0      |       8960
       2  |  1:59.36 |    5:06.35   |        8961      |      31945
       3  |  7:05.71 |    5:54.73   |       31946      |      58568
       4  | 13:00.69 |    4:57.55   |       58569      |      80898
       5  | 17:58.49 |    4:17.29   |       80899      |     100202
       6  | 22:16.03 |    4:33.32   |      100203      |     120709
       7  | 26:49.35 |    4:34.58   |      120710      |     141317
       8  | 31:24.18 |    4:39.19   |      141318      |     162261
       9  | 36:03.37 |    3:04.13   |      162262      |     176074
      10  | 39:07.50 |    4:12.31   |      176075      |     195005
      11  | 43:20.06 |    4:10.70   |      195006      |     213825
Характеристики диапазона извлечения и сообщения об ошибках
Выбранный диапазон
     Имя файла E:\torrent2\Nature Destroyed 2009-Hassliebe (EBM industrial) [flac] 473101 (Codeline Records, Germany)\Nature Destroyed - Hassliebe.wav
     Пиковый уровень 97.7 %
     Качество диапазона 100.0 %
     CRC теста 10D83353
     CRC копии 10D83353
     Копирование... OK
Ошибок не произошло
AccurateRip: сводка
Трек  1  точное извлечение (доверие 1)  [C386E6D7]
Трек  2  точное извлечение (доверие 1)  [B7D3714B]
Трек  3  точное извлечение (доверие 1)  [AA7C0070]
Трек  4  точное извлечение (доверие 1)  [C1D384F5]
Трек  5  точное извлечение (доверие 1)  [DD1D82E1]
Трек  6  точное извлечение (доверие 1)  [192D3E2F]
Трек  7  точное извлечение (доверие 1)  [C8C90747]
Трек  8  точное извлечение (доверие 1)  [7D08EB6E]
Трек  9  точное извлечение (доверие 1)  [C10E68FA]
Трек 10  точное извлечение (доверие 1)  [8CFA4265]
Трек 11  точное извлечение (доверие 1)  [E852EF35]
Все треки извлечены точно
Конец отчёта
Хочешь скачать, но не можешь из-за отсутствия сидов - пиши в личку!
Правила, инструкции, FAQ!!!
Торрент  Добавлен [26 июн 2020, 17:49] Скачать торрент Магнет ссылка
Скачать торрент
[ Размер 15.48 КБ / Просмотров 9 ]

Статус
Проверен 
 
Размер  371.76 МБ
Приватный: Нет (DHT включён)
.torrent скачан  0
 


     Отправить личное сообщение
   
Страница 1 из 1
Показать сообщения за:  Поле сортировки  
Начать новую тему Ответить на тему


Сейчас этот форум просматривают: нет зарегистрированных пользователей и гости: 0


Вы не можете начинать темы
Вы не можете отвечать на сообщения
Вы не можете редактировать свои сообщения
Вы не можете удалять свои сообщения
Вы не можете добавлять вложения

Перейти:  
cron