Начать новую тему Ответить на тему
Статистика раздачи
Размер: 400.99 МБ | Добавлен: 26 июн 2020, 18:56 | Скачали: 0
Сидеров: 0  [0 байт/сек]    Личеров: 0  [0 байт/сек]
Пред. тема | След. тема 

Автор
Сообщение

СообщениеДобавлено: 26 июн 2020, 18:56 

Ответить с цитатой 

Nachtmahr / Semper Fidelis
Жанр: EBM industrial
Страна-производитель диска: Germany
Год издания диска: 2010
Издатель (лейбл): Trisol Music Group
Номер по каталогу: TRI 409 CD
Аудио кодек: FLAC (*.flac)
Тип рипа: image+.cue
Битрейт аудио: lossless
Продолжительность: 39:58.51
Источник (релизер): Физический носитель
Наличие сканов в содержимом раздачи: да
Треклист:
01. Enemies (Intro) [1:24]
02. Wir Schreiben Geschichte [4:17]
03. Tanz, Major! [3:56]
04. Unbeugsam [3:26]
05. Verräter An Gott [3:55]
06. Rise And Fall [4:37]
07. Massiv [3:18]
08. Can You Feel The Beat? [4:04]
09. Tanz Des Blutes [3:46]
10. Rache [3:35]
11. Trockenficken [3:39]
Код:
Exact Audio Copy V0.99 prebeta 5 from 4. May 2009
Отчёт EAC об извлечении, выполненном 23. февраля 2011, 11:00
Nachtmahr / :Semper Fidelis:
Дисковод: Optiarc DVD RW AD-7173A   Adapter: 0  ID: 0
Режим чтения                 : Достоверность
Использование точного потока : Да
Отключение кэша аудио        : Да
Использование указателей C2  : Нет
Коррекция смещения при чтении                     : 48
Способность читать области Lead-in и Lead-out     : Нет
Заполнение пропущенных сэмплов тишиной            : Да
Удаление блоков с тишиной в начале и конце        : Нет
При вычислениях CRC использовались нулевые сэмплы : Да
Интерфейс                                         : Установленный внешний ASPI-интерфейс
Выходной формат          : Пользовательский кодировщик
Выбранный битрейт        : 1024 kBit/s
Качество                 : Высокий
Добавление ID3-тэга      : Нет
Утилита сжатия           : C:\Program Files\Exact Audio Copy\flac.exe
Дополнительные параметры : -6 -V -T "ARTIST=%a" -T "TITLE=%t" -T "ALBUM=%g" -T "DATE=%y" -T "TRACKNUMBER=%n" -T "GENRE=%m" -T "COMMENT=%e" %s -o %d
TOC извлечённого CD
     Трек |   Старт  | Длительность | Начальный сектор | Конечный сектор
    ---------------------------------------------------------------------
       1  |  0:00.00 |    1:24.16   |           0      |       6315
       2  |  1:24.16 |    4:17.33   |        6316      |      25623
       3  |  5:41.49 |    3:56.00   |       25624      |      43323
       4  |  9:37.49 |    3:26.33   |       43324      |      58806
       5  | 13:04.07 |    3:55.05   |       58807      |      76436
       6  | 16:59.12 |    4:37.25   |       76437      |      97236
       7  | 21:36.37 |    3:18.37   |       97237      |     112123
       8  | 24:54.74 |    4:04.02   |      112124      |     130425
       9  | 28:59.01 |    3:45.45   |      130426      |     147345
      10  | 32:44.46 |    3:34.48   |      147346      |     163443
      11  | 36:19.19 |    3:39.32   |      163444      |     179900
Характеристики диапазона извлечения и сообщения об ошибках
Выбранный диапазон
     Имя файла H:\СКАЧКА\FLAC\1 TORRENT\Nachtmahr - Semper Fidelis.wav
     Пиковый уровень 98.1 %
     Качество диапазона 99.9 %
     CRC теста 3066AA44
     CRC копии 3066AA44
     Копирование... OK
Ошибок не произошло
AccurateRip: сводка
Трек  1  нет в базе данных
Трек  2  нет в базе данных
Трек  3  нет в базе данных
Трек  4  нет в базе данных
Трек  5  нет в базе данных
Трек  6  нет в базе данных
Трек  7  нет в базе данных
Трек  8  нет в базе данных
Трек  9  нет в базе данных
Трек 10  нет в базе данных
Трек 11  нет в базе данных
Ни одного трека нет в базе AccurateRip
Конец отчёта
Правила, инструкции, FAQ!!!
Торрент  Добавлен [26 июн 2020, 18:56] Скачать торрент Магнет ссылка
Скачать торрент
[ Размер 17.29 КБ / Просмотров 7 ]

Статус
Проверен 
 
Размер  400.99 МБ
Приватный: Нет (DHT включён)
.torrent скачан  0
 


     Отправить личное сообщение
   
Страница 1 из 1
Показать сообщения за:  Поле сортировки  
Начать новую тему Ответить на тему


Сейчас этот форум просматривают: нет зарегистрированных пользователей и гости: 0


Вы не можете начинать темы
Вы не можете отвечать на сообщения
Вы не можете редактировать свои сообщения
Вы не можете удалять свои сообщения
Вы не можете добавлять вложения

Перейти:  
cron