Начать новую тему Ответить на тему
Статистика раздачи
Размер: 308.9 МБ | Добавлен: 26 июн 2020, 19:21 | Скачали: 0
Сидеров: 0  [0 байт/сек]    Личеров: 0  [0 байт/сек]
Пред. тема | След. тема 

Автор
Сообщение

СообщениеДобавлено: 26 июн 2020, 19:21 

Ответить с цитатой 

Nachtmahr / Feindbild
Жанр: EBM, Industrial
Носитель: CD
Год издания: 2014
Издатель (лейбл): Trisol
Страна исполнителя (группы): Austria
Аудиокодек: FLAC (*.flac)
Тип рипа: tracks+.cue
Битрейт аудио: lossless
Продолжительность: 00:42:43
Источник (релизер): www
Наличие сканов в содержимом раздачи: нет
Треклист:
1. Wir sind zurück (03:19)
2. Dämon (04:16)
3. I Hate Berlin (04:14)
4. Die Fahnen unserer Väter (04:07)
5. Chaos (05:06)
6. Parasit (04:05)
7. Feindbild (03:23)
8. Stehend sterben (03:55)
9. Liebst du mich? (03:52)
10. The Torch (04:10)
11. Wache (02:16)
Код:
X Lossless Decoder version 20131102 (145.0)
XLD extraction logfile from 2014-02-10 18:57:16 +0000
Nachtmahr / Feindbild
Used drive : HL-DT-ST BD-RE BP40NS20 (revision ML01)
Media type : Pressed CD
Ripper mode             : XLD Secure Ripper
Disable audio cache     : OK for the drive with a cache less than 1375KiB
Make use of C2 pointers : NO
Read offset correction  : 667
Max retry count         : 20
Gap status              : Analyzed, Appended (except HTOA)
TOC of the extracted CD
     Track |   Start  |  Length  | Start sector | End sector
    ---------------------------------------------------------
        1  | 00:00:00 | 03:19:52 |         0    |    14976
        2  | 03:19:52 | 04:16:51 |     14977    |    34227
        3  | 07:36:28 | 04:14:53 |     34228    |    53330
        4  | 11:51:06 | 04:07:19 |     53331    |    71874
        5  | 15:58:25 | 05:06:74 |     71875    |    94898
        6  | 21:05:24 | 04:05:37 |     94899    |   113310
        7  | 25:10:61 | 03:23:49 |    113311    |   128584
        8  | 28:34:35 | 03:55:54 |    128585    |   146263
        9  | 32:30:14 | 03:52:39 |    146264    |   163702
       10  | 36:22:53 | 04:10:37 |    163703    |   182489
       11  | 40:33:15 | 02:16:62 |    182490    |   192751
AccurateRip Summary
    Disc not found in AccurateRip DB.
All Tracks
    Album gain               : -9.35 dB
    Peak                     : 0.998993
    Statistics
        Read error                           : 0
        Jitter error (maybe fixed)           : 0
        Retry sector count                   : 0
        Damaged sector count                 : 0
Track 01
    Filename : /Volumes/[[[) MUSIC (]]]/TMP for ALL/Music/Nachtmahr - Feindbild (2014)/01 - Wir Sind Zurück.flac
               /Volumes/[[[) MUSIC (]]]/TMP for ALL/Music/Nachtmahr - Feindbild (2014)/01 - Wir Sind Zurück.m4a
               /Volumes/[[[) MUSIC (]]]/TMP for ALL/Music/Nachtmahr - Feindbild (2014)/01 - Wir Sind Zurück.mp3
    Pre-gap length : 00:02:00
    Track gain               : -10.07 dB
    Peak                     : 0.998993
    CRC32 hash (test run)    : 6613EBF3
    CRC32 hash               : 6613EBF3
    CRC32 hash (skip zero)   : E8369A78
    AccurateRip v1 signature : 54566BEB
    AccurateRip v2 signature : EC86712F
        ->Track not present in AccurateRip database.
    Statistics
        Read error                           : 0
        Jitter error (maybe fixed)           : 0
        Retry sector count                   : 0
        Damaged sector count                 : 0
Track 02
    Filename : /Volumes/[[[) MUSIC (]]]/TMP for ALL/Music/Nachtmahr - Feindbild (2014)/02 - Dämon.flac
               /Volumes/[[[) MUSIC (]]]/TMP for ALL/Music/Nachtmahr - Feindbild (2014)/02 - Dämon.m4a
               /Volumes/[[[) MUSIC (]]]/TMP for ALL/Music/Nachtmahr - Feindbild (2014)/02 - Dämon.mp3
    Track gain               : -9.33 dB
    Peak                     : 0.998993
    CRC32 hash (test run)    : B92FA683
    CRC32 hash               : B92FA683
    CRC32 hash (skip zero)   : 9C1312B4
    AccurateRip v1 signature : 63C39C1F
    AccurateRip v2 signature : 31A182EB
        ->Track not present in AccurateRip database.
    Statistics
        Read error                           : 0
        Jitter error (maybe fixed)           : 0
        Retry sector count                   : 0
        Damaged sector count                 : 0
Track 03
    Filename : /Volumes/[[[) MUSIC (]]]/TMP for ALL/Music/Nachtmahr - Feindbild (2014)/03 - I Hate Berlin (feat. Frl. Plastique).flac
               /Volumes/[[[) MUSIC (]]]/TMP for ALL/Music/Nachtmahr - Feindbild (2014)/03 - I Hate Berlin (feat. Frl. Plastique).m4a
               /Volumes/[[[) MUSIC (]]]/TMP for ALL/Music/Nachtmahr - Feindbild (2014)/03 - I Hate Berlin (feat. Frl. Plastique).mp3
    Track gain               : -9.85 dB
    Peak                     : 0.998993
    CRC32 hash (test run)    : CC2F1BC9
    CRC32 hash               : CC2F1BC9
    CRC32 hash (skip zero)   : DE764277
    AccurateRip v1 signature : DA44A5E2
    AccurateRip v2 signature : 5DC74800
        ->Track not present in AccurateRip database.
    Statistics
        Read error                           : 0
        Jitter error (maybe fixed)           : 0
        Retry sector count                   : 0
        Damaged sector count                 : 0
Track 04
    Filename : /Volumes/[[[) MUSIC (]]]/TMP for ALL/Music/Nachtmahr - Feindbild (2014)/04 - Die Fahnen Unserer Väter.flac
               /Volumes/[[[) MUSIC (]]]/TMP for ALL/Music/Nachtmahr - Feindbild (2014)/04 - Die Fahnen Unserer Väter.m4a
               /Volumes/[[[) MUSIC (]]]/TMP for ALL/Music/Nachtmahr - Feindbild (2014)/04 - Die Fahnen Unserer Väter.mp3
    Track gain               : -9.11 dB
    Peak                     : 0.998993
    CRC32 hash (test run)    : 2461FD78
    CRC32 hash               : 2461FD78
    CRC32 hash (skip zero)   : 8989EC13
    AccurateRip v1 signature : CF1CEF1B
    AccurateRip v2 signature : 9A6D3AB8
        ->Track not present in AccurateRip database.
    Statistics
        Read error                           : 0
        Jitter error (maybe fixed)           : 0
        Retry sector count                   : 0
        Damaged sector count                 : 0
Track 05
    Filename : /Volumes/[[[) MUSIC (]]]/TMP for ALL/Music/Nachtmahr - Feindbild (2014)/05 - Chaos.flac
               /Volumes/[[[) MUSIC (]]]/TMP for ALL/Music/Nachtmahr - Feindbild (2014)/05 - Chaos.m4a
               /Volumes/[[[) MUSIC (]]]/TMP for ALL/Music/Nachtmahr - Feindbild (2014)/05 - Chaos.mp3
    Track gain               : -9.24 dB
    Peak                     : 0.998993
    CRC32 hash (test run)    : C73FFEF2
    CRC32 hash               : C73FFEF2
    CRC32 hash (skip zero)   : B4F50FF7
    AccurateRip v1 signature : 6BE4E768
    AccurateRip v2 signature : 95FCF4EC
        ->Track not present in AccurateRip database.
    Statistics
        Read error                           : 0
        Jitter error (maybe fixed)           : 0
        Retry sector count                   : 0
        Damaged sector count                 : 0
Track 06
    Filename : /Volumes/[[[) MUSIC (]]]/TMP for ALL/Music/Nachtmahr - Feindbild (2014)/06 - Parasit.flac
               /Volumes/[[[) MUSIC (]]]/TMP for ALL/Music/Nachtmahr - Feindbild (2014)/06 - Parasit.m4a
               /Volumes/[[[) MUSIC (]]]/TMP for ALL/Music/Nachtmahr - Feindbild (2014)/06 - Parasit.mp3
    Track gain               : -9.55 dB
    Peak                     : 0.998993
    CRC32 hash (test run)    : 1CA94EA6
    CRC32 hash               : 1CA94EA6
    CRC32 hash (skip zero)   : 2DD26CBC
    AccurateRip v1 signature : EF4BCB43
    AccurateRip v2 signature : 98FA9837
        ->Track not present in AccurateRip database.
    Statistics
        Read error                           : 0
        Jitter error (maybe fixed)           : 0
        Retry sector count                   : 0
        Damaged sector count                 : 0
Track 07
    Filename : /Volumes/[[[) MUSIC (]]]/TMP for ALL/Music/Nachtmahr - Feindbild (2014)/07 - Feindbild.flac
               /Volumes/[[[) MUSIC (]]]/TMP for ALL/Music/Nachtmahr - Feindbild (2014)/07 - Feindbild.m4a
               /Volumes/[[[) MUSIC (]]]/TMP for ALL/Music/Nachtmahr - Feindbild (2014)/07 - Feindbild.mp3
    Track gain               : -10.16 dB
    Peak                     : 0.998993
    CRC32 hash (test run)    : 159AAC5A
    CRC32 hash               : 159AAC5A
    CRC32 hash (skip zero)   : 907B56D4
    AccurateRip v1 signature : 5AAA24D1
    AccurateRip v2 signature : E5DEEEF5
        ->Track not present in AccurateRip database.
    Statistics
        Read error                           : 0
        Jitter error (maybe fixed)           : 0
        Retry sector count                   : 0
        Damaged sector count                 : 0
Track 08
    Filename : /Volumes/[[[) MUSIC (]]]/TMP for ALL/Music/Nachtmahr - Feindbild (2014)/08 - Stehend Sterben.flac
               /Volumes/[[[) MUSIC (]]]/TMP for ALL/Music/Nachtmahr - Feindbild (2014)/08 - Stehend Sterben.m4a
               /Volumes/[[[) MUSIC (]]]/TMP for ALL/Music/Nachtmahr - Feindbild (2014)/08 - Stehend Sterben.mp3
    Track gain               : -8.47 dB
    Peak                     : 0.998993
    CRC32 hash (test run)    : 40648AB8
    CRC32 hash               : 40648AB8
    CRC32 hash (skip zero)   : 1F6109CF
    AccurateRip v1 signature : 157DFEBD
    AccurateRip v2 signature : 73B10ADE
        ->Track not present in AccurateRip database.
    Statistics
        Read error                           : 0
        Jitter error (maybe fixed)           : 0
        Retry sector count                   : 0
        Damaged sector count                 : 0
Track 09
    Filename : /Volumes/[[[) MUSIC (]]]/TMP for ALL/Music/Nachtmahr - Feindbild (2014)/09 - Liebst Du Mich .flac
               /Volumes/[[[) MUSIC (]]]/TMP for ALL/Music/Nachtmahr - Feindbild (2014)/09 - Liebst Du Mich .m4a
               /Volumes/[[[) MUSIC (]]]/TMP for ALL/Music/Nachtmahr - Feindbild (2014)/09 - Liebst Du Mich .mp3
    Track gain               : -10.20 dB
    Peak                     : 0.998993
    CRC32 hash (test run)    : D7D1CC09
    CRC32 hash               : D7D1CC09
    CRC32 hash (skip zero)   : 74D14C81
    AccurateRip v1 signature : D631670F
    AccurateRip v2 signature : 6379A461
        ->Track not present in AccurateRip database.
    Statistics
        Read error                           : 0
        Jitter error (maybe fixed)           : 0
        Retry sector count                   : 0
        Damaged sector count                 : 0
Track 10
    Filename : /Volumes/[[[) MUSIC (]]]/TMP for ALL/Music/Nachtmahr - Feindbild (2014)/10 - The Torch.flac
               /Volumes/[[[) MUSIC (]]]/TMP for ALL/Music/Nachtmahr - Feindbild (2014)/10 - The Torch.m4a
               /Volumes/[[[) MUSIC (]]]/TMP for ALL/Music/Nachtmahr - Feindbild (2014)/10 - The Torch.mp3
    Track gain               : -8.70 dB
    Peak                     : 0.998993
    CRC32 hash (test run)    : 1D7E94BF
    CRC32 hash               : 1D7E94BF
    CRC32 hash (skip zero)   : 2C32F234
    AccurateRip v1 signature : A097E84E
    AccurateRip v2 signature : 1AFEAAE4
        ->Track not present in AccurateRip database.
    Statistics
        Read error                           : 0
        Jitter error (maybe fixed)           : 0
        Retry sector count                   : 0
        Damaged sector count                 : 0
Track 11
    Filename : /Volumes/[[[) MUSIC (]]]/TMP for ALL/Music/Nachtmahr - Feindbild (2014)/11 - Wache.flac
               /Volumes/[[[) MUSIC (]]]/TMP for ALL/Music/Nachtmahr - Feindbild (2014)/11 - Wache.m4a
               /Volumes/[[[) MUSIC (]]]/TMP for ALL/Music/Nachtmahr - Feindbild (2014)/11 - Wache.mp3
    Track gain               : -0.06 dB
    Peak                     : 0.654053
    CRC32 hash (test run)    : C88DE288
    CRC32 hash               : C88DE288
    CRC32 hash (skip zero)   : B9EF03A7
    AccurateRip v1 signature : 14E77703
    AccurateRip v2 signature : FB2331F2
        ->Track not present in AccurateRip database.
    Statistics
        Read error                           : 0
        Jitter error (maybe fixed)           : 0
        Retry sector count                   : 0
        Damaged sector count                 : 0
No errors occurred
End of status report
-----BEGIN XLD SIGNATURE-----
7Oy7dm2dRK51v0HbH_79BkUOSxz.ydWuDvZcS1_hh2L5wU_AE3s2AV.zIbQhRD6l_1Bzd1YL1zGvulij1vzltOb8RUBIbte5dHApQsi
-----END XLD SIGNATURE-----
Код:
TITLE "Feindbild"
PERFORMER "Nachtmahr"
REM GENRE "ebm"
REM DATE "2014"
REM DISCNUMBER 1
REM TOTALDISCS 1
REM DISCID 860A0A0B
REM REPLAYGAIN_ALBUM_GAIN -9.35 dB
REM REPLAYGAIN_ALBUM_PEAK 0.998993
FILE "01 - Wir Sind Zurück.flac" WAVE
  TRACK 01 AUDIO
    TITLE "Wir Sind Zurück"
    PERFORMER "Nachtmahr"
    REM REPLAYGAIN_TRACK_GAIN -10.07 dB
    REM REPLAYGAIN_TRACK_PEAK 0.998993
    INDEX 01 00:00:00
FILE "02 - Dämon.flac" WAVE
  TRACK 02 AUDIO
    TITLE "Dämon"
    PERFORMER "Nachtmahr"
    REM REPLAYGAIN_TRACK_GAIN -9.33 dB
    REM REPLAYGAIN_TRACK_PEAK 0.998993
    INDEX 01 00:00:00
FILE "03 - I Hate Berlin (feat. Frl. Plastique).flac" WAVE
  TRACK 03 AUDIO
    TITLE "I Hate Berlin (feat. Frl. Plastique)"
    PERFORMER "Nachtmahr"
    REM REPLAYGAIN_TRACK_GAIN -9.85 dB
    REM REPLAYGAIN_TRACK_PEAK 0.998993
    INDEX 01 00:00:00
FILE "04 - Die Fahnen Unserer Väter.flac" WAVE
  TRACK 04 AUDIO
    TITLE "Die Fahnen Unserer Väter"
    PERFORMER "Nachtmahr"
    REM REPLAYGAIN_TRACK_GAIN -9.11 dB
    REM REPLAYGAIN_TRACK_PEAK 0.998993
    INDEX 01 00:00:00
FILE "05 - Chaos.flac" WAVE
  TRACK 05 AUDIO
    TITLE "Chaos"
    PERFORMER "Nachtmahr"
    REM REPLAYGAIN_TRACK_GAIN -9.24 dB
    REM REPLAYGAIN_TRACK_PEAK 0.998993
    INDEX 01 00:00:00
FILE "06 - Parasit.flac" WAVE
  TRACK 06 AUDIO
    TITLE "Parasit"
    PERFORMER "Nachtmahr"
    REM REPLAYGAIN_TRACK_GAIN -9.55 dB
    REM REPLAYGAIN_TRACK_PEAK 0.998993
    INDEX 01 00:00:00
FILE "07 - Feindbild.flac" WAVE
  TRACK 07 AUDIO
    TITLE "Feindbild"
    PERFORMER "Nachtmahr"
    REM REPLAYGAIN_TRACK_GAIN -10.16 dB
    REM REPLAYGAIN_TRACK_PEAK 0.998993
    INDEX 01 00:00:00
FILE "08 - Stehend Sterben.flac" WAVE
  TRACK 08 AUDIO
    TITLE "Stehend Sterben"
    PERFORMER "Nachtmahr"
    REM REPLAYGAIN_TRACK_GAIN -8.47 dB
    REM REPLAYGAIN_TRACK_PEAK 0.998993
    INDEX 01 00:00:00
FILE "09 - Liebst Du Mich .flac" WAVE
  TRACK 09 AUDIO
    TITLE "Liebst Du Mich?"
    PERFORMER "Nachtmahr"
    REM REPLAYGAIN_TRACK_GAIN -10.20 dB
    REM REPLAYGAIN_TRACK_PEAK 0.998993
    INDEX 01 00:00:00
FILE "10 - The Torch.flac" WAVE
  TRACK 10 AUDIO
    TITLE "The Torch"
    PERFORMER "Nachtmahr"
    REM REPLAYGAIN_TRACK_GAIN -8.70 dB
    REM REPLAYGAIN_TRACK_PEAK 0.998993
    INDEX 01 00:00:00
FILE "11 - Wache.flac" WAVE
  TRACK 11 AUDIO
    TITLE "Wache"
    PERFORMER "Nachtmahr"
    REM REPLAYGAIN_TRACK_GAIN -0.06 dB
    REM REPLAYGAIN_TRACK_PEAK 0.654053
    INDEX 01 00:00:00
Правила, инструкции, FAQ!!!
Торрент  Добавлен [26 июн 2020, 19:21] Скачать торрент Магнет ссылка
Скачать торрент
[ Размер 13.21 КБ / Просмотров 14 ]

Статус
Проверен 
 
Размер  308.9 МБ
Приватный: Нет (DHT включён)
.torrent скачан  0
 


     Отправить личное сообщение
   
Страница 1 из 1
Показать сообщения за:  Поле сортировки  
Начать новую тему Ответить на тему


Сейчас этот форум просматривают: нет зарегистрированных пользователей и гости: 0


Вы не можете начинать темы
Вы не можете отвечать на сообщения
Вы не можете редактировать свои сообщения
Вы не можете удалять свои сообщения
Вы не можете добавлять вложения

Перейти:  
cron