Начать новую тему Ответить на тему
Статистика раздачи
Размер: 564.17 МБ | Добавлен: 26 июн 2020, 20:15 | Скачали: 0
Сидеров: 0  [0 байт/сек]    Личеров: 0  [0 байт/сек]
Пред. тема | След. тема 

Автор
Сообщение

СообщениеДобавлено: 26 июн 2020, 20:15 

Ответить с цитатой 

Miss Construction - United Trash - The Z Files


Жанр: EBM | Industrial
Носитель: CD
Год издания: 2013
Издатель (лейбл): Fear Section
Номер по каталогу: Fear 037
Страна исполнителя (группы): Germany
Аудиокодек: FLAC (*.flac)
Тип рипа: image+.cue
Битрейт аудио: lossless
Продолжительность: 01:12:00
Источник (релизер): DmXpert
Наличие сканов: да
Треклист:
01. Inconstruction [00:03:38]
02. I'm A Bitch [00:04:57]
03. Alptraumclown [00:05:32]
04. EBM [00:04:11]
05. Tanzen [00:05:34]
06. Fest [00:05:07]
07. Zombiefied 2013 [00:04:31]
08. Electrontanz [00:04:13]
09. S & M [00:05:40]
10. Hey, Zombie, Hey [00:03:35]
11. Discoschlampen (Reworked) [00:04:17]
12. Skalpell [00:03:55]
13. Don't Be Sad [00:05:06]
14. Massagger (Demo 2009) [00:11:38]


Код:
Exact Audio Copy V1.0 beta 3 from 29. August 2011
EAC extraction logfile from 16. March 2014, 16:26
Miss Construction / United Trash - The Z Files
Used drive  : PLEXTOR BDDVDR PX-B320SA   Adapter: 1  ID: 0
Read mode               : Secure
Utilize accurate stream : Yes
Defeat audio cache      : Yes
Make use of C2 pointers : No
Read offset correction                      : 6
Overread into Lead-In and Lead-Out          : No
Fill up missing offset samples with silence : Yes
Delete leading and trailing silent blocks   : No
Null samples used in CRC calculations       : Yes
Used interface                              : Installed external ASPI interface
Used output format              : User Defined Encoder
Selected bitrate                : 896 kBit/s
Quality                         : High
Add ID3 tag                     : No
Command line compressor         : C:\Program Files (x86)\FLAC\flac.exe
Additional command line options : -V -8 -T "Date=%year%" -T "Genre=%genre%" %source%
TOC of the extracted CD
     Track |   Start  |  Length  | Start sector | End sector
    ---------------------------------------------------------
        1  |  0:00.00 |  3:38.51 |         0    |    16400
        2  |  3:38.51 |  4:57.34 |     16401    |    38709
        3  |  8:36.10 |  5:32.30 |     38710    |    63639
        4  | 14:08.40 |  4:11.74 |     63640    |    82538
        5  | 18:20.39 |  5:34.28 |     82539    |   107616
        6  | 23:54.67 |  5:07.55 |    107617    |   130696
        7  | 29:02.47 |  4:31.20 |    130697    |   151041
        8  | 33:33.67 |  4:13.20 |    151042    |   170036
        9  | 37:47.12 |  5:40.02 |    170037    |   195538
       10  | 43:27.14 |  3:35.10 |    195539    |   211673
       11  | 47:02.24 |  4:17.64 |    211674    |   231012
       12  | 51:20.13 |  3:55.14 |    231013    |   248651
       13  | 55:15.27 |  5:06.27 |    248652    |   271628
       14  | 60:21.54 | 11:38.28 |    271629    |   324006
Range status and errors
Selected range
     Filename D:\Miss Construction - United Trash - The Z Files (2013)(#Fear 037)\Miss Construction - United Trash - The Z Files.wav
     Peak level 99.2 %
     Extraction speed 3.9 X
     Range quality 100.0 %
     Test CRC 291703BF
     Copy CRC 291703BF
     Copy OK
No errors occurred
AccurateRip summary
Track  1  accurately ripped (confidence 2)  [8B1FBEA4]  (AR v2)
Track  2  accurately ripped (confidence 2)  [FECCF1DF]  (AR v2)
Track  3  accurately ripped (confidence 2)  [D333EEB1]  (AR v2)
Track  4  accurately ripped (confidence 2)  [E2BAAB5F]  (AR v2)
Track  5  accurately ripped (confidence 2)  [BF5460F5]  (AR v2)
Track  6  accurately ripped (confidence 2)  [2C2D1232]  (AR v2)
Track  7  accurately ripped (confidence 2)  [0106A12C]  (AR v2)
Track  8  accurately ripped (confidence 2)  [733B2A68]  (AR v2)
Track  9  accurately ripped (confidence 2)  [133DAAF3]  (AR v2)
Track 10  accurately ripped (confidence 2)  [666E6462]  (AR v2)
Track 11  accurately ripped (confidence 2)  [1192A225]  (AR v2)
Track 12  accurately ripped (confidence 2)  [21A756AE]  (AR v2)
Track 13  accurately ripped (confidence 2)  [7DE59A52]  (AR v2)
Track 14  accurately ripped (confidence 2)  [206D7A34]  (AR v2)
All tracks accurately ripped
End of status report
==== Log checksum FC857E2BEF24D15A8DF642C3DFF4F11B291D3BAC9716C4657E9DAA431DD651EF ====
Код:
REM DATE 2013
REM DISCID A810E00E
REM COMMENT "ExactAudioCopy v1.0b3"
CATALOG 4260207954131
PERFORMER "Miss Construction"
TITLE "United Trash - The Z Files"
FILE "Miss Construction - United Trash - The Z Files.flac" WAVE
  TRACK 01 AUDIO
    TITLE "Inconstruction"
    PERFORMER "Miss Construction"
    ISRC DEBZ:1300493
    INDEX 01 00:00:00
  TRACK 02 AUDIO
    TITLE "I'm A Bitch"
    PERFORMER "Miss Construction"
    ISRC DEBZ:1300494
    INDEX 01 03:38:51
  TRACK 03 AUDIO
    TITLE "Alptraumclown"
    PERFORMER "Miss Construction"
    ISRC DEBZ:1300495
    INDEX 01 08:36:10
  TRACK 04 AUDIO
    TITLE "EBM"
    PERFORMER "Miss Construction"
    ISRC DEBZ:1300496
    INDEX 01 14:08:40
  TRACK 05 AUDIO
    TITLE "Tanzen"
    PERFORMER "Miss Construction"
    ISRC DEBZ:1300497
    INDEX 01 18:20:39
  TRACK 06 AUDIO
    TITLE "Fest"
    PERFORMER "Miss Construction"
    ISRC DEBZ:1300498
    INDEX 01 23:54:67
  TRACK 07 AUDIO
    TITLE "Zombiefied 2013"
    PERFORMER "Miss Construction"
    ISRC DEBZ:1300499
    INDEX 01 29:02:47
  TRACK 08 AUDIO
    TITLE "Electrontanz"
    PERFORMER "Miss Construction"
    ISRC DEBZ:1300500
    INDEX 01 33:33:67
  TRACK 09 AUDIO
    TITLE "S & M"
    PERFORMER "Miss Construction"
    ISRC DEBZ:1300501
    INDEX 01 37:47:12
  TRACK 10 AUDIO
    TITLE "Hey, Zombie, Hey"
    PERFORMER "Miss Construction"
    ISRC DEBZ:1300502
    INDEX 01 43:27:14
  TRACK 11 AUDIO
    TITLE "Discoschlampen (Reworked)"
    PERFORMER "Miss Construction"
    ISRC DEBZ:1300502
    INDEX 01 47:02:24
  TRACK 12 AUDIO
    TITLE "Skalpell"
    PERFORMER "Miss Construction"
    ISRC DEBZ:1300504
    INDEX 01 51:20:13
  TRACK 13 AUDIO
    TITLE "Don't Be Sad"
    PERFORMER "Miss Construction"
    ISRC DEBZ:1300505
    INDEX 01 55:15:27
  TRACK 14 AUDIO
    TITLE "Massagger (Demo 2009)"
    PERFORMER "Miss Construction"
    ISRC DEBZ:1300506
    INDEX 01 60:21:54
Код:
-----------------------
DON'T MODIFY THIS FILE
-----------------------
PERFORMER: auCDtect Task Manager, ver. 1.5.1RC6 build 1.5.1.7
Copyright (c) 2008-2010 y-soft. All rights reserved
[url=http://y-soft.org]http://y-soft.org[/url]
ANALYZER: auCDtect: CD records authenticity detector, version 0.8.2
Copyright (c) 2004 Oleg Berngardt. All rights reserved.
Copyright (c) 2004 Alexander Djourik. All rights reserved.
FILE: Miss Construction - United Trash - The Z Files.flac
  Size: 560724731 Hash: D004CD543282DE5B9EDA2B31DFF440C2 Accuracy: -m0
  Conclusion: CDDA 100%
  Signature: 25B9074137605839F761463E918D66FA6A0396BC
Правила, инструкции, FAQ!!!
Торрент  Добавлен [26 июн 2020, 20:15] Скачать торрент Магнет ссылка
Скачать торрент
[ Размер 12.17 КБ / Просмотров 10 ]

Статус
Проверен 
 
Размер  564.17 МБ
Приватный: Нет (DHT включён)
.torrent скачан  0
 


     Отправить личное сообщение
   
Страница 1 из 1
Показать сообщения за:  Поле сортировки  
Начать новую тему Ответить на тему


Сейчас этот форум просматривают: нет зарегистрированных пользователей и гости: 0


Вы не можете начинать темы
Вы не можете отвечать на сообщения
Вы не можете редактировать свои сообщения
Вы не можете удалять свои сообщения
Вы не можете добавлять вложения

Перейти:  
cron