Начать новую тему Ответить на тему
Статистика раздачи
Размер: 863.88 МБ | Добавлен: 26 июн 2020, 17:47 | Скачали: 0
Сидеров: 0  [0 байт/сек]    Личеров: 0  [0 байт/сек]
Пред. тема | След. тема 

Автор
Сообщение

СообщениеДобавлено: 26 июн 2020, 17:47 

Ответить с цитатой 

Mechanical Moth - Torment [2CD Digipak Limited Edition]
Жанр: EBM, Industrial
Год выпуска диска: 2005
Производитель диска: Germany
Аудио кодек: FLAC
Тип рипа: image+.cue
Битрейт аудио: lossless
Продолжительность: 00:59:17 + 01:02:29
Трэклист:
Torment
01. Welcome to Torment (3:55)
02. Devotion (3:53)
03. Blind Prophet (5:13)
04. Fluegelschlag (3:51)
05. Radical Behavior (4:03)
06. Dark Dimensions (4:27)
07. After that (3:49)
08. Bbf (3:33)
09. A Loveletter to (2:47)
10. Your Flames (3:22)
11. March of the Damned (3:41)
12. Torment (4:43)
13. Shutdown (3:36)
14. Another Dream (8:11)
Additional Torment
01. Behind Your Eyes (4:44)
02. Shivering (3:46)
03. Winternachtstraum (6:16)
04. War Against Myself (4:20)
05. Dark Dimensions (remix) (4:27)
06. March of the Damned (German) (3:41)
07. Fluegelschlag (Xotox remix) (3:35)
08. Dark Dimensions (Seelenzorn remix) (5:35)
09. Shutdown (Exilnation remix) (5:11)
10. Behind Your Eyes (Accoustic) (4:42)
11. Torment Toccata (Allegro Assai in A-Moll) (10:42)
12. Untitled (3:19)
Код:
Exact Audio Copy V0.99 prebeta 5 from 4. May 2009
Отчёт EAC об извлечении, выполненном 21. декабря 2009, 20:39
Mechanical Moth / Torment
Дисковод: Optiarc DVD RW AD-7201S   Adapter: 2  ID: 1
Режим чтения                 : Достоверность
Использование точного потока : Да
Отключение кэша аудио        : Да
Использование указателей C2  : Нет
Коррекция смещения при чтении                     : 48
Способность читать области Lead-in и Lead-out     : Нет
Заполнение пропущенных сэмплов тишиной            : Да
Удаление блоков с тишиной в начале и конце        : Нет
При вычислениях CRC использовались нулевые сэмплы : Да
Интерфейс                                         : Встроенный Win32-интерфейс для Win NT/2000
Выходной формат : Внутренние WAV-операции
Формат сэмплов  : 44.100 Гц; 16 бит; стерео
TOC извлечённого CD
     Трек |   Старт  | Длительность | Начальный сектор | Конечный сектор
    ---------------------------------------------------------------------
       1  |  0:00.00 |    3:56.14   |           0      |      17713
       2  |  3:56.14 |    3:53.69   |       17714      |      35257
       3  |  7:50.08 |    5:13.65   |       35258      |      58797
       4  | 13:03.73 |    3:52.27   |       58798      |      76224
       5  | 16:56.25 |    4:03.71   |       76225      |      94520
       6  | 21:00.21 |    4:28.20   |       94521      |     114640
       7  | 25:28.41 |    3:49.35   |      114641      |     131850
       8  | 29:18.01 |    3:33.62   |      131851      |     147887
       9  | 32:51.63 |    2:48.08   |      147888      |     160495
      10  | 35:39.71 |    3:22.65   |      160496      |     175710
      11  | 39:02.61 |    3:41.50   |      175711      |     192335
      12  | 42:44.36 |    4:44.14   |      192336      |     213649
      13  | 47:28.50 |    3:37.19   |      213650      |     229943
      14  | 51:05.69 |    8:12.01   |      229944      |     266844
Характеристики диапазона извлечения и сообщения об ошибках
Выбранный диапазон
     Имя файла D:\Раздачи\Mechanical Moth - Torment\Mechanical Moth - Torment.wav
     Пиковый уровень 98.9 %
     Качество диапазона 100.0 %
     CRC теста 0C471322
     CRC копии 0C471322
     Копирование... OK
Ошибок не произошло
Конец отчёта
Код:
Exact Audio Copy V0.99 prebeta 5 from 4. May 2009
Отчёт EAC об извлечении, выполненном 21. декабря 2009, 20:59
Mechanical Moth / Additional Torment/Ltd.Ed.
Дисковод: Optiarc DVD RW AD-7201S   Adapter: 2  ID: 1
Режим чтения                 : Достоверность
Использование точного потока : Да
Отключение кэша аудио        : Да
Использование указателей C2  : Нет
Коррекция смещения при чтении                     : 48
Способность читать области Lead-in и Lead-out     : Нет
Заполнение пропущенных сэмплов тишиной            : Да
Удаление блоков с тишиной в начале и конце        : Нет
При вычислениях CRC использовались нулевые сэмплы : Да
Интерфейс                                         : Встроенный Win32-интерфейс для Win NT/2000
Выходной формат : Внутренние WAV-операции
Формат сэмплов  : 44.100 Гц; 16 бит; стерео
TOC извлечённого CD
     Трек |   Старт  | Длительность | Начальный сектор | Конечный сектор
    ---------------------------------------------------------------------
       1  |  0:00.00 |    4:45.16   |           0      |      21390
       2  |  4:45.16 |    3:46.55   |       21391      |      38395
       3  |  8:31.71 |    6:17.25   |       38396      |      66695
       4  | 14:49.21 |    4:20.36   |       66696      |      86231
       5  | 19:09.57 |    4:28.00   |       86232      |     106331
       6  | 23:37.57 |    3:41.50   |      106332      |     122956
       7  | 27:19.32 |    3:36.08   |      122957      |     139164
       8  | 30:55.40 |    5:35.37   |      139165      |     164326
       9  | 36:31.02 |    5:12.00   |      164327      |     187726
      10  | 41:43.02 |    4:43.04   |      187727      |     208955
      11  | 46:26.06 |   10:43.01   |      208956      |     257181
      12  | 57:09.07 |    0:11.20   |      257182      |     258026
      13  | 57:20.27 |    0:11.00   |      258027      |     258851
      14  | 57:31.27 |    0:11.00   |      258852      |     259676
      15  | 57:42.27 |    0:11.00   |      259677      |     260501
      16  | 57:53.27 |    0:11.00   |      260502      |     261326
      17  | 58:04.27 |    0:11.00   |      261327      |     262151
      18  | 58:15.27 |    0:11.00   |      262152      |     262976
      19  | 58:26.27 |    0:11.00   |      262977      |     263801
      20  | 58:37.27 |    0:11.00   |      263802      |     264626
      21  | 58:48.27 |    0:11.00   |      264627      |     265451
      22  | 58:59.27 |    0:11.00   |      265452      |     266276
      23  | 59:10.27 |    3:19.33   |      266277      |     281234
Характеристики диапазона извлечения и сообщения об ошибках
Выбранный диапазон
     Имя файла D:\Раздачи\Mechanical Moth - Torment\Mechanical Moth - Additional Torment Ltd.Ed..wav
     Пиковый уровень 98.9 %
     Качество диапазона 100.0 %
     CRC теста 221041FB
     CRC копии 221041FB
     Копирование... OK
Ошибок не произошло
Конец отчёта
Код:
AUDIOCHECKER v2.0 beta (build 457) - by Dester - opdester@freemail.hu
~~~~~~~~~~~~~~~~~~~~~~~~~~~~~~~~~~
Started at: понедельник, 21. 12. 2009. - 21:04.28
2 files found
1 -===- D:\Раздачи\Mechanical Moth - Torment\Mechanical Moth - Additional Torment Ltd.Ed.flac
  Extracted successfully
  Conclusion: this track is CDDA with probability 100%
  Tempfile successfully deleted.
2 -===- D:\Раздачи\Mechanical Moth - Torment\Mechanical Moth - Torment.flac
  Extracted successfully
  Conclusion: this track is CDDA with probability 100%
  Tempfile successfully deleted.
Finished at: понедельник, 21. 12. 2009. - 21:19.00 (operation time: 0:14.31)
Label:Scanner
Catalog#:SC 046L
Format:CD, Album, Enhanced, Limited Edition
Country:Germany
Released:04 Apr 2005
Genre:Electronic
Style:EBM, Industrial
HQ Scans Full Complete
Правила, инструкции, FAQ!!!
Торрент  Добавлен [26 июн 2020, 17:47] Скачать торрент Магнет ссылка
Скачать торрент
[ Размер 18.08 КБ / Просмотров 10 ]

Статус
Проверен 
 
Размер  863.88 МБ
Приватный: Нет (DHT включён)
.torrent скачан  0
 


     Отправить личное сообщение
   
Страница 1 из 1
Показать сообщения за:  Поле сортировки  
Начать новую тему Ответить на тему


Сейчас этот форум просматривают: нет зарегистрированных пользователей и гости: 0


Вы не можете начинать темы
Вы не можете отвечать на сообщения
Вы не можете редактировать свои сообщения
Вы не можете удалять свои сообщения
Вы не можете добавлять вложения

Перейти:  
cron