Начать новую тему Ответить на тему
Статистика раздачи
Размер: 1.03 ГБ | Добавлен: 26 июн 2020, 17:46 | Скачали: 0
Сидеров: 0  [0 байт/сек]    Личеров: 0  [0 байт/сек]
Пред. тема | След. тема 

Автор
Сообщение

СообщениеДобавлено: 26 июн 2020, 17:46 

Ответить с цитатой 

Mechanical Moth - The Sad Machina [2CD Digipak Limited Edition]
Жанр: EBM, Industrial
Год выпуска диска: 2007
Производитель диска: Germany
Аудио кодек: FLAC
Тип рипа: image+.cue
Битрейт аудио: lossless
Трэклист:
CD ONE:
01. Introduction 0:13
02. A Haze In The Shadow 3:40
03. Chainsaw 3:31
04. Time 4:36
05. Reapers Bride 3:46
06. Die Königin Der Schatten 3:43
07. Hate The Light 4:11
08. Sag Mir 3:35
09. Obsession 3:43
10. On A Winters Eve 3:59
11. The Sad Machina 5:33
12. Veiled 4:02
13. Schreie In Der Nacht 3:27
14. Quietus 3:16
15. Frostbound 3:29
16. Das Letzte Lied 3:24
CD TWO:Additional Sadness
01. A Haze In The Shadow (Pecadores Mix) 3:44
02. Die Königin Der Schatten (Heimatærde Remix) 5:02
03. Time (Angelus Mortus Remix) 4:19
04. Chainsaw (Eternal Nightmare Remix) 5:50
05. Flügelschlag (3 Cold Men Remix) 5:13
06. Reapers Bride (AM INC Remix) 3:38
07. March Of The Damned (Eternal Nightmare Remix) 4:45
08. A Haze In The Shadow (Metallspürhunde Remix) 3:47
09. Veiled (St. Claire Remix) 3:49
10. Hate The Light (Occculture Remix) 4:56
11. Eternal Nightmare 3:14
12. Where Heaven Ends 3:45
13. Alone In The Dark 4:53
14. Engelsflügel 4:00
15. Flügelschlag (Orchestral) 3:49
Код:
Exact Audio Copy V0.99 prebeta 5 from 4. May 2009
Отчёт EAC об извлечении, выполненном 15. ноября 2009, 18:30
Mechanical Moth / The Sad Machina
Дисковод: Optiarc DVD RW AD-7201S   Adapter: 2  ID: 1
Режим чтения                 : Достоверность
Использование точного потока : Да
Отключение кэша аудио        : Да
Использование указателей C2  : Нет
Коррекция смещения при чтении                     : 48
Способность читать области Lead-in и Lead-out     : Нет
Заполнение пропущенных сэмплов тишиной            : Да
Удаление блоков с тишиной в начале и конце        : Нет
При вычислениях CRC использовались нулевые сэмплы : Да
Интерфейс                                         : Встроенный Win32-интерфейс для
Win NT/2000
Выходной формат : Внутренние WAV-операции
Формат сэмплов  : 44.100 Гц; 16 бит; стерео
TOC извлечённого CD
     Трек |   Старт  | Длительность | Начальный сектор | Конечный сектор
    ---------------------------------------------------------------------
       1  |  0:00.00 |    0:12.38   |           0      |        937
       2  |  0:12.38 |    3:40.36   |         938      |      17473
       3  |  3:52.74 |    3:31.25   |       17474      |      33323
       4  |  7:24.24 |    4:36.24   |       33324      |      54047
       5  | 12:00.48 |    3:47.17   |       54048      |      71089
       6  | 15:47.65 |    3:44.03   |       71090      |      87892
       7  | 19:31.68 |    4:12.17   |       87893      |     106809
       8  | 23:44.10 |    3:36.66   |      106810      |     123075
       9  | 27:21.01 |    3:44.55   |      123076      |     139930
      10  | 31:05.56 |    3:59.55   |      139931      |     157910
      11  | 35:05.36 |    5:33.67   |      157911      |     182952
      12  | 40:39.28 |    4:02.59   |      182953      |     201161
      13  | 44:42.12 |    3:28.41   |      201162      |     216802
      14  | 48:10.53 |    3:17.65   |      216803      |     231642
      15  | 51:28.43 |    3:29.58   |      231643      |     247375
      16  | 54:58.26 |    3:24.49   |      247376      |     262724
Характеристики диапазона извлечения и сообщения об ошибках
Выбранный диапазон
     Имя файла E:\Раздачи\Mechanical Moth 2 СД\Mechanical Moth - The
Sad Machina.wav
     Пиковый уровень 100.0 %
     Качество диапазона 100.0 %
     CRC теста 72875DCA
     CRC копии 72875DCA
     Копирование... OK
Ошибок не произошло
Конец отчёта
Код:
Exact Audio Copy V0.99 prebeta 5 from 4. May 2009
Отчёт EAC об извлечении, выполненном 15. ноября 2009, 18:47
Mechanical Moth / Additional Sadness
Дисковод: Optiarc DVD RW AD-7201S   Adapter: 2  ID: 1
Режим чтения                 : Достоверность
Использование точного потока : Да
Отключение кэша аудио        : Да
Использование указателей C2  : Нет
Коррекция смещения при чтении                     : 48
Способность читать области Lead-in и Lead-out     : Нет
Заполнение пропущенных сэмплов тишиной            : Да
Удаление блоков с тишиной в начале и конце        : Нет
При вычислениях CRC использовались нулевые сэмплы : Да
Интерфейс                                         : Встроенный Win32-интерфейс для
Win NT/2000
Выходной формат : Внутренние WAV-операции
Формат сэмплов  : 44.100 Гц; 16 бит; стерео
TOC извлечённого CD
     Трек |   Старт  | Длительность | Начальный сектор | Конечный сектор
    ---------------------------------------------------------------------
       1  |  0:00.00 |    3:44.13   |           0      |      16812
       2  |  3:44.13 |    5:02.03   |       16813      |      39465
       3  |  8:46.16 |    4:19.58   |       39466      |      58948
       4  | 13:05.74 |    5:50.48   |       58949      |      85246
       5  | 18:56.47 |    5:13.73   |       85247      |     108794
       6  | 24:10.45 |    3:38.18   |      108795      |     125162
       7  | 27:48.63 |    4:45.55   |      125163      |     146592
       8  | 32:34.43 |    3:47.49   |      146593      |     163666
       9  | 36:22.17 |    3:49.12   |      163667      |     180853
      10  | 40:11.29 |    4:56.49   |      180854      |     203102
      11  | 45:08.03 |    3:14.33   |      203103      |     217685
      12  | 48:22.36 |    3:45.62   |      217686      |     234622
      13  | 52:08.23 |    4:53.41   |      234623      |     256638
      14  | 57:01.64 |    4:00.43   |      256639      |     274681
      15  | 61:02.32 |    3:49.43   |      274682      |     291899
Характеристики диапазона извлечения и сообщения об ошибках
Выбранный диапазон
     Имя файла E:\Раздачи\Mechanical Moth 2 СД\Mechanical Moth -
Additional Sadness.wav
     Пиковый уровень 98.0 %
     Качество диапазона 100.0 %
     CRC теста AD9AED6A
     CRC копии AD9AED6A
     Копирование... OK
Ошибок не произошло
Конец отчёта
Код:
2 files found
Started at: воскресенье, 15. 11. 2009. - 18:48.52
1 -===- E:\Раздачи\Mechanical Moth 2 СД\Mechanical Moth - Additional Sadness.flac
  Extracted successfully
  Conclusion: this track is CDDA with probability 100%
  Tempfile successfully deleted.
2 -===- E:\Раздачи\Mechanical Moth 2 СД\Mechanical Moth - The Sad Machina.flac
  Extracted successfully
  Conclusion: this track is CDDA with probability 100%
  Tempfile successfully deleted.
Finished at: воскресенье, 15. 11. 2009. - 19:03.11 (operation time: 0:14.18)
Label:Scanner
Catalog#:SCAN 063
Format:CD, Album CD, Enhanced, Limited Edition
Country:Germany
Released:04 May 2007
Genre:Electronic
Style:EBM, Electro, Industrial

HQ Scans Full Complete
Правила, инструкции, FAQ!!!
Торрент  Добавлен [26 июн 2020, 17:46] Скачать торрент Магнет ссылка
Скачать торрент
[ Размер 11.77 КБ / Просмотров 4 ]

Статус
Проверен 
 
Размер  1.03 ГБ
Приватный: Нет (DHT включён)
.torrent скачан  0
 


     Отправить личное сообщение
   
Страница 1 из 1
Показать сообщения за:  Поле сортировки  
Начать новую тему Ответить на тему


Сейчас этот форум просматривают: нет зарегистрированных пользователей и гости: 0


Вы не можете начинать темы
Вы не можете отвечать на сообщения
Вы не можете редактировать свои сообщения
Вы не можете удалять свои сообщения
Вы не можете добавлять вложения

Перейти:  
cron