Начать новую тему Ответить на тему
Статистика раздачи
Размер: 493.61 МБ | Добавлен: 26 июн 2020, 17:54 | Скачали: 0
Сидеров: 0  [0 байт/сек]    Личеров: 0  [0 байт/сек]
Пред. тема | След. тема 

Автор
Сообщение

СообщениеДобавлено: 26 июн 2020, 17:54 

Ответить с цитатой 

Mechanical Moth - Fallen Into You
Жанр: EBM, Industrial
Год выпуска диска: 2004
Производитель диска: Germany
Аудио кодек: FLAC
Тип рипа: image+.cue
Битрейт аудио: lossless
Продолжительность: 00:57:47
Трэклист:
01. Dead Roses 4:59
02. Revive 4:10
03. Personal Oblivion 4:29
04. Prophecy Of The Moth 3:33
05. Gateway 5:24
06. Answers 1:54
07. Herz Aus Stein 5:48
08. Hope (A Deaf Lie) 7:08
09. Fallen Into You 4:50
10. About The Dead 1:50
11. The Devil Inside 5:24
12. The Unseen 4:17
13. Deadend 3:40
Код:
Exact Audio Copy V0.99 prebeta 5 from 4. May 2009
Отчёт EAC об извлечении, выполненном 15. ноября 2009, 18:01
Mechanical Moth / Fallen into you
Дисковод: Optiarc DVD RW AD-7201S   Adapter: 2  ID: 1
Режим чтения                 : Достоверность
Использование точного потока : Да
Отключение кэша аудио        : Да
Использование указателей C2  : Нет
Коррекция смещения при чтении                     : 48
Способность читать области Lead-in и Lead-out     : Нет
Заполнение пропущенных сэмплов тишиной            : Да
Удаление блоков с тишиной в начале и конце        : Нет
При вычислениях CRC использовались нулевые сэмплы : Да
Интерфейс                                         : Встроенный Win32-интерфейс для
Win NT/2000
Выходной формат : Внутренние WAV-операции
Формат сэмплов  : 44.100 Гц; 16 бит; стерео
TOC извлечённого CD
     Трек |   Старт  | Длительность | Начальный сектор | Конечный сектор
    ---------------------------------------------------------------------
       1  |  0:00.00 |    5:01.67   |           0      |      22641
       2  |  5:01.67 |    4:12.56   |       22642      |      41597
       3  |  9:14.48 |    4:31.05   |       41598      |      61927
       4  | 13:45.53 |    3:33.41   |       61928      |      77943
       5  | 17:19.19 |    5:25.71   |       77944      |     102389
       6  | 22:45.15 |    1:54.55   |      102390      |     110994
       7  | 24:39.70 |    5:49.72   |      110995      |     137241
       8  | 30:29.67 |    7:09.69   |      137242      |     169485
       9  | 37:39.61 |    4:51.30   |      169486      |     191340
      10  | 42:31.16 |    1:52.48   |      191341      |     199788
      11  | 44:23.64 |    5:25.24   |      199789      |     224187
      12  | 49:49.13 |    4:17.63   |      224188      |     243525
      13  | 54:07.01 |    3:40.16   |      243526      |     260041
Характеристики диапазона извлечения и сообщения об ошибках
Выбранный диапазон
     Имя файла E:\Раздачи\Mechanical Moth-Fallen into you\Mechanical Moth
- Fallen into you.wav
     Пиковый уровень 99.9 %
     Качество диапазона 100.0 %
     CRC теста E33C7BC7
     CRC копии E33C7BC7
     Копирование... OK
Ошибок не произошло
Конец отчёта
Код:
Started at: воскресенье, 15. 11. 2009. - 18:05.34
1 file found
1 -===- E:\Раздачи\Mechanical Moth-Fallen into you\Mechanical Moth - Fallen into you.flac
  Extracted successfully
  Conclusion: this track is CDDA with probability 100%
  Tempfile successfully deleted.
Finished at: воскресенье, 15. 11. 2009. - 18:12.12 (operation time: 0:06.38)
Код:
E:\Раздачи\Mechanical Moth-Fallen into you\Mechanical Moth - Fallen into you.flac
Checking AccurateRip database
Track ->> Ripping Status ->>  ->> [Disc ID: 001c1fa7-af0d8b0d]
 1 ->> Track not present in database.    [ae783572]
 2 ->> Track not present in database.    [007d488b]
 3 ->> Track not present in database.    [c0045a9a]
 4 ->> Track not present in database.    [d2493463]
 5 ->> Track not present in database.    [bf3af5b5]
 6 ->> Track not present in database.    [994a54fa]
 7 ->> Track not present in database.    [c2de3494]
 8 ->> Track not present in database.    [7a9a9d4f]
 9 ->> Track not present in database.    [491ca13e]
 10 ->> Track not present in database.    [938c9994]
 11 ->> Track not present in database.    [8d8beef6]
 12 ->> Track not present in database.    [d0d58d7c]
 13 ->> Track not present in database.    [1828a67f]
_______________________
Disc not present in AccurateRip database.
Label:Scanner
Catalog#:SC 041
Format:CD, Album
Country:Germany
Released:15 Mar 2004
Genre:Electronic
Style:EBM, Industrial

HQ Scans Full Complete
Правила, инструкции, FAQ!!!
Торрент  Добавлен [26 июн 2020, 17:54] Скачать торрент Магнет ссылка
Скачать торрент
[ Размер 20.34 КБ / Просмотров 9 ]

Статус
Проверен 
 
Размер  493.61 МБ
Приватный: Нет (DHT включён)
.torrent скачан  0
 


     Отправить личное сообщение
   
Страница 1 из 1
Показать сообщения за:  Поле сортировки  
Начать новую тему Ответить на тему


Сейчас этот форум просматривают: нет зарегистрированных пользователей и гости: 0


Вы не можете начинать темы
Вы не можете отвечать на сообщения
Вы не можете редактировать свои сообщения
Вы не можете удалять свои сообщения
Вы не можете добавлять вложения

Перейти:  
cron