Начать новую тему Ответить на тему
Статистика раздачи
Размер: 446.69 МБ | Добавлен: 26 июн 2020, 19:49 | Скачали: 0
Сидеров: 0  [0 байт/сек]    Личеров: 0  [0 байт/сек]
Пред. тема | След. тема 

Автор
Сообщение

СообщениеДобавлено: 26 июн 2020, 19:49 

Ответить с цитатой 

X Marks the Pedwalk - The Killing Had Begun

Жанр: EBM, Industrial
Носитель: CD
Страна-производитель диска: Germany
Год издания: 1994
Издатель (лейбл): Zoth Ommog
Номер по каталогу: CD ZOT 107
Страна: Germany
Аудиокодек: FLAC (*.flac)
Тип рипа: image+.cue
Битрейт аудио: lossless
Продолжительность: 00:51:15
Источник (релизер): Собственный рип
Наличие сканов в содержимом раздачи: да, PNG 600dpi
Треклист
01. I Promise You a Murder [05:05]
02. Wipe No Tears [04:12]
03. Cul-de-Sac [04:42]
04. No Premonition [05:01]
05. Worthless [04:01]
06. Made of Wax [04:49]
07. My Back [04:19]
08. The Occurence [05:17]
09. Your Eyes [06:20]
10. Conversion [03:24]
11. Insight [04:02]
Код:
Exact Audio Copy V1.0 beta 3 from 29. August 2011
Отчёт EAC об извлечении, выполненном 1. апреля 2014, 15:44
X Marks the Pedwalk / The Killing Had Begun (CD ZOT 107)
Дисковод: PIONEER BD-RW   BDR-206   Adapter: 0  ID: 2
Режим чтения                 : Достоверность
Использование точного потока : Да
Отключение кэша аудио        : Да
Использование указателей C2  : Нет
Коррекция смещения при чтении                     : 667
Способность читать области Lead-in и Lead-out     : Нет
Заполнение пропущенных сэмплов тишиной            : Да
Удаление блоков с тишиной в начале и конце        : Нет
При вычислениях CRC использовались нулевые сэмплы : Да
Интерфейс                                         : Встроенный Win32-интерфейс для Win NT/2000
Выходной формат          : Пользовательский кодировщик
Выбранный битрейт        : 1024 kBit/s
Качество                 : Высокий
Добавление ID3-тега      : Нет
Утилита сжатия           : C:\Program Files (x86)\Exact Audio Copy\FLAC\FLAC.EXE
Дополнительные параметры : -T "COMMENT=Ripped by SergeyJD"-8 -V -T "ARTIST=%artist%" -T "TITLE=%title%" -T "ALBUM=%albumtitle%" -T "DATE=%year%" -T "TRACKNUMBER=%tracknr%" -T "GENRE=%genre%" -T "COMMENT=%comment%" -T "BAND=%albuminterpret%" -T "ALBUMARTIST=%albuminterpret%" -T "COMPOSER=%composer%" %haslyrics%--tag-from-file=LYRICS="%lyricsfile%"%haslyrics% -T "DISCNUMBER=%cdnumber%" -T "TOTALDISCS=%totalcds%" -T "TOTALTRACKS=%numtracks%" %hascover%--picture="%coverfile%"%hascover% %source% -o %dest%
TOC извлечённого CD
     Трек |   Старт  | Длительность | Начальный сектор | Конечный сектор
    ---------------------------------------------------------------------
       1  |  0:00.00 |    5:05.37   |           0      |      22911
       2  |  5:05.37 |    4:12.38   |       22912      |      41849
       3  |  9:18.00 |    4:42.50   |       41850      |      63049
       4  | 14:00.50 |    5:01.25   |       63050      |      85649
       5  | 19:02.00 |    4:01.25   |       85650      |     103749
       6  | 23:03.25 |    4:49.12   |      103750      |     125436
       7  | 27:52.37 |    4:19.00   |      125437      |     144861
       8  | 32:11.37 |    5:17.50   |      144862      |     168686
       9  | 37:29.12 |    6:20.00   |      168687      |     197186
      10  | 43:49.12 |    3:24.38   |      197187      |     212524
      11  | 47:13.50 |    4:02.25   |      212525      |     230699
Характеристики диапазона извлечения и сообщения об ошибках
Выбранный диапазон
     Имя файла D:\РАЗДАЧИ!!!!\X Marks The Pedwalk - The Killing Had Begun (CD ZOT 107) - 1994\X Marks the Pedwalk - The Killing Had Begun (CD ZOT 107).wav
     Пиковый уровень 100.0 %
     Скорость извлечения 1.7 X
     Качество диапазона 99.9 %
     CRC теста 4DF706FE
     CRC копии 4DF706FE
     Копирование... OK
Ошибок не произошло
AccurateRip: сводка
Трек  1  : извлечено точно (доверие 6)  [56AEC792]  (AR v2)
Трек  2  : извлечено точно (доверие 6)  [A390BCD8]  (AR v2)
Трек  3  : извлечено точно (доверие 6)  [163AD544]  (AR v2)
Трек  4  : извлечено точно (доверие 6)  [5A8352B9]  (AR v2)
Трек  5  : извлечено точно (доверие 6)  [E4B0F51D]  (AR v2)
Трек  6  : извлечено точно (доверие 6)  [171EC3F6]  (AR v2)
Трек  7  : извлечено точно (доверие 6)  [819155FF]  (AR v2)
Трек  8  : извлечено точно (доверие 6)  [E6922A4D]  (AR v2)
Трек  9  : извлечено точно (доверие 6)  [418796CC]  (AR v2)
Трек 10  : извлечено точно (доверие 6)  [033D307F]  (AR v2)
Трек 11  : извлечено точно (доверие 6)  [E6BC343D]  (AR v2)
Все треки извлечены точно
Конец отчёта
==== Контрольная сумма отчёта C9CD9699B33524BACB49D3074F4B5A1C01009F4856B6D1936B16B7BE31E25D87 ====
Код:
REM GENRE "EBM, Industrial"
REM DATE 1994
REM DISCID 8A0C040B
REM COMMENT "ExactAudioCopy v1.0b3"
PERFORMER "X Marks the Pedwalk"
TITLE "The Killing Had Begun (CD ZOT 107)"
FILE "X Marks the Pedwalk - The Killing Had Begun (CD ZOT 107).flac" WAVE
  TRACK 01 AUDIO
    TITLE "I Promise You a Murder"
    PERFORMER "X Marks the Pedwalk"
    INDEX 01 00:00:00
  TRACK 02 AUDIO
    TITLE "Wipe No Tears"
    PERFORMER "X Marks the Pedwalk"
    INDEX 00 05:02:65
    INDEX 01 05:05:37
  TRACK 03 AUDIO
    TITLE "Cul-de-Sac"
    PERFORMER "X Marks the Pedwalk"
    INDEX 00 09:15:33
    INDEX 01 09:18:00
  TRACK 04 AUDIO
    TITLE "No Premonition"
    PERFORMER "X Marks the Pedwalk"
    INDEX 00 13:57:73
    INDEX 01 14:00:50
  TRACK 05 AUDIO
    TITLE "Worthless"
    PERFORMER "X Marks the Pedwalk"
    INDEX 00 18:59:27
    INDEX 01 19:02:00
  TRACK 06 AUDIO
    TITLE "Made of Wax"
    PERFORMER "X Marks the Pedwalk"
    INDEX 00 23:00:60
    INDEX 01 23:03:25
  TRACK 07 AUDIO
    TITLE "My Back"
    PERFORMER "X Marks the Pedwalk"
    INDEX 00 27:49:62
    INDEX 01 27:52:37
  TRACK 08 AUDIO
    TITLE "The Occurence"
    PERFORMER "X Marks the Pedwalk"
    INDEX 00 32:08:60
    INDEX 01 32:11:37
  TRACK 09 AUDIO
    TITLE "Your Eyes"
    PERFORMER "X Marks the Pedwalk"
    INDEX 00 37:26:42
    INDEX 01 37:29:12
  TRACK 10 AUDIO
    TITLE "Conversion"
    PERFORMER "X Marks the Pedwalk"
    INDEX 00 43:46:41
    INDEX 01 43:49:12
  TRACK 11 AUDIO
    TITLE "Insight"
    PERFORMER "X Marks the Pedwalk"
    INDEX 00 47:11:01
    INDEX 01 47:13:50
Код:
-----------------------
DON'T MODIFY THIS FILE
-----------------------
PERFORMER: auCDtect Task Manager, ver. 1.5.1RC6 build 1.5.1.7
Copyright (c) 2008-2010 y-soft. All rights reserved
[url=http://y-soft.org]http://y-soft.org[/url]
ANALYZER: auCDtect: CD records authenticity detector, version 0.8.2
Copyright (c) 2004 Oleg Berngardt. All rights reserved.
Copyright (c) 2004 Alexander Djourik. All rights reserved.
FILE: X Marks the Pedwalk - The Killing Had Begun (CD ZOT 107).flac
  Size: 332664433 Hash: 4CA337FA23515809AFF2446FD538E136 Accuracy: -m0
  Conclusion: CDDA 100%
  Signature: 429259F03D683FDFB41AF96A5ECEC329D7CE3ABD
Этот альбом ничто иное, как отличная ebm музыка. Развитие работы Sevren Ni-arb's от "Freaks" до настоящего времени заключает в себя эволюцию от стилистики Skinny Puppy до чего-то особенного и уникального. Тонко сплетенные текстуры и запоминающаяся технология программинга вместе с определенным улучшением текстов обеспечивают железные доказательства утверждения, что XMTP более не являются группой, чья концепция полностью заимствована, но вместо этого это теперь группа, которая накопила солидный опыт, и может двигаться только к совершенству. В отличии от танцевальности предыдущих релизов, этот альбом имеет тенденцию склоняться к более расслабленной атмосфере. Если вы устали от все этих ebm групп, которые звучат похоже друг на друга, послушайте данный новый релиз XMTP.
Источник: industrialreviews.ru
Правила, инструкции, FAQ!!!
Торрент  Добавлен [26 июн 2020, 19:49] Скачать торрент Магнет ссылка
Скачать торрент
[ Размер 18.53 КБ / Просмотров 6 ]

Статус
Проверен 
 
Размер  446.69 МБ
Приватный: Нет (DHT включён)
.torrent скачан  0
 


     Отправить личное сообщение
   
Страница 1 из 1
Показать сообщения за:  Поле сортировки  
Начать новую тему Ответить на тему


Сейчас этот форум просматривают: нет зарегистрированных пользователей и гости: 0


Вы не можете начинать темы
Вы не можете отвечать на сообщения
Вы не можете редактировать свои сообщения
Вы не можете удалять свои сообщения
Вы не можете добавлять вложения

Перейти:  
cron