Начать новую тему Ответить на тему
Статистика раздачи
Размер: 855.77 МБ | Добавлен: 26 июн 2020, 17:10 | Скачали: 0
Сидеров: 0  [0 байт/сек]    Личеров: 0  [0 байт/сек]
Пред. тема | След. тема 

Автор
Сообщение

СообщениеДобавлено: 26 июн 2020, 17:10 

Ответить с цитатой 

Lola Angst - Viva La Lola
Жанр: EBM industrial
Год выпуска диска: 2009
Производитель диска: (Out Of Line, Germany)
Аудио кодек: FLAC
Тип рипа: image+.cue
Битрейт аудио: lossless
Продолжительность Disc1: 53:13.28
Продолжительность Disc2: 1:01:43.43
Трэклист:
Disc1 - Viva La Lola
01. Go To Hell [4:18]
02. This Earth Is Not Enough For Me [4:45]
03. Blood And Honour [4:39]
04. I Love Myself [3:50]
05. Boulevard Of Broken Hearts [4:26]
06. Dear Enemy [3:10]
07. Daddy Daddy [2:41]
08. Wonderful Flower [3:50]
09. Strange Beautiful Tear [3:49]
10. Monkeys [4:07]
11. This Is The End [4:18]
12. Love Is A Battlefield [4:33]
13. Death Is In The Air [4:48]
Disc2 - Live In Germania
01. Introduction [2:26]
02. Just Slaves [3:58]
03. Dead Man's Song [4:09]
04. Final War [4:30]
05. Hello Happiness [4:29]
06. Dear Enemy [3:16]
07. Strange Beautiful Tear [3:50]
08. I Love Myself [3:30]
09. Daddy Daddy [2:42]
10. This Earth Is Not Enough For Me [4:48]
11. Mr. Trisex [4:41]
12. Kurva Sloboda [5:01]
13. Death Is In The Air [6:45]
14. Stonedead Stones [3:49]
15. Good God [3:50]
Код:
Exact Audio Copy V0.99 prebeta 5 from 4. May 2009
Отчёт EAC об извлечении, выполненном 30. декабря 2009, 20:34
Lola Angst / Viva La Lola
Дисковод: Optiarc DVD RW AD-7173A   Adapter: 0  ID: 0
Режим чтения                 : Достоверность
Использование точного потока : Да
Отключение кэша аудио        : Да
Использование указателей C2  : Нет
Коррекция смещения при чтении                     : 48
Способность читать области Lead-in и Lead-out     : Нет
Заполнение пропущенных сэмплов тишиной            : Да
Удаление блоков с тишиной в начале и конце        : Нет
При вычислениях CRC использовались нулевые сэмплы : Да
Интерфейс                                         : Установленный внешний ASPI-интерфейс
Выходной формат          : Пользовательский кодировщик
Выбранный битрейт        : 1024 kBit/s
Качество                 : Высокий
Добавление ID3-тэга      : Нет
Утилита сжатия           : C:\Program Files\Exact Audio Copy\Flac\flac.exe
Дополнительные параметры : -6 -V -T "ARTIST=%a" -T "TITLE=%t" -T "ALBUM=%g" -T "DATE=%y" -T "TRACKNUMBER=%n" -T "GENRE=%m" -T "COMMENT=%e" %s -o %d
TOC извлечённого CD
     Трек |   Старт  | Длительность | Начальный сектор | Конечный сектор
    ---------------------------------------------------------------------
       1  |  0:00.00 |    4:17.64   |           0      |      19338
       2  |  4:17.64 |    4:44.42   |       19339      |      40680
       3  |  9:02.31 |    4:39.11   |       40681      |      61616
       4  | 13:41.42 |    3:50.09   |       61617      |      78875
       5  | 17:31.51 |    4:26.05   |       78876      |      98830
       6  | 21:57.56 |    3:10.01   |       98831      |     113081
       7  | 25:07.57 |    2:41.00   |      113082      |     125156
       8  | 27:48.57 |    3:50.37   |      125157      |     142443
       9  | 31:39.19 |    3:48.60   |      142444      |     159603
      10  | 35:28.04 |    4:07.02   |      159604      |     178130
      11  | 39:35.06 |    4:17.49   |      178131      |     197454
      12  | 43:52.55 |    4:33.00   |      197455      |     217929
      13  | 48:25.55 |    4:47.48   |      217930      |     239502
Характеристики диапазона извлечения и сообщения об ошибках
Выбранный диапазон
     Имя файла H:\СКАЧКА\FLAC\1 TORRENT\Lola Angst - Viva La Lola.wav
     Пиковый уровень 100.0 %
     Качество диапазона 100.0 %
     CRC теста 3194E432
     CRC копии 3194E432
     Копирование... OK
Ошибок не произошло
AccurateRip: сводка
Трек  1  нет в базе данных
Трек  2  нет в базе данных
Трек  3  нет в базе данных
Трек  4  нет в базе данных
Трек  5  нет в базе данных
Трек  6  нет в базе данных
Трек  7  нет в базе данных
Трек  8  нет в базе данных
Трек  9  нет в базе данных
Трек 10  нет в базе данных
Трек 11  нет в базе данных
Трек 12  нет в базе данных
Трек 13  нет в базе данных
Ни одного трека нет в базе AccurateRip
Конец отчёта
Код:
xact Audio Copy V0.99 prebeta 5 from 4. May 2009
Отчёт EAC об извлечении, выполненном 31. декабря 2009, 11:50
Lola Angst / Live In Germania
Дисковод: Optiarc DVD RW AD-7173A   Adapter: 0  ID: 0
Режим чтения                 : Достоверность
Использование точного потока : Да
Отключение кэша аудио        : Да
Использование указателей C2  : Нет
Коррекция смещения при чтении                     : 48
Способность читать области Lead-in и Lead-out     : Нет
Заполнение пропущенных сэмплов тишиной            : Да
Удаление блоков с тишиной в начале и конце        : Нет
При вычислениях CRC использовались нулевые сэмплы : Да
Интерфейс                                         : Установленный внешний ASPI-интерфейс
Выходной формат          : Пользовательский кодировщик
Выбранный битрейт        : 1024 kBit/s
Качество                 : Высокий
Добавление ID3-тэга      : Нет
Утилита сжатия           : C:\Program Files\Exact Audio Copy\Flac\flac.exe
Дополнительные параметры : -6 -V -T "ARTIST=%a" -T "TITLE=%t" -T "ALBUM=%g" -T "DATE=%y" -T "TRACKNUMBER=%n" -T "GENRE=%m" -T "COMMENT=%e" %s -o %d
TOC извлечённого CD
     Трек |   Старт  | Длительность | Начальный сектор | Конечный сектор
    ---------------------------------------------------------------------
       1  |  0:00.00 |    2:26.19   |           0      |      10968
       2  |  2:26.19 |    3:57.56   |       10969      |      28799
       3  |  6:24.00 |    4:09.22   |       28800      |      47496
       4  | 10:33.22 |    4:30.00   |       47497      |      67746
       5  | 15:03.22 |    4:28.42   |       67747      |      87888
       6  | 19:31.64 |    3:15.50   |       87889      |     102563
       7  | 22:47.39 |    3:50.00   |      102564      |     119813
       8  | 26:37.39 |    3:30.09   |      119814      |     135572
       9  | 30:07.48 |    2:42.00   |      135573      |     147722
      10  | 32:49.48 |    4:47.73   |      147723      |     169320
      11  | 37:37.46 |    4:40.68   |      169321      |     190388
      12  | 42:18.39 |    5:00.57   |      190389      |     212945
      13  | 47:19.21 |    6:44.72   |      212946      |     243317
      14  | 54:04.18 |    3:49.23   |      243318      |     260515
      15  | 57:53.41 |    3:50.02   |      260516      |     277767
Характеристики диапазона извлечения и сообщения об ошибках
Выбранный диапазон
     Имя файла H:\СКАЧКА\FLAC\1 TORRENT\Lola Angst - Live In Germania.wav
     Пиковый уровень 99.9 %
     Качество диапазона 100.0 %
     CRC теста B875026F
     CRC копии B875026F
     Копирование... OK
Ошибок не произошло
AccurateRip: сводка
Трек  1  нет в базе данных
Трек  2  нет в базе данных
Трек  3  нет в базе данных
Трек  4  нет в базе данных
Трек  5  нет в базе данных
Трек  6  нет в базе данных
Трек  7  нет в базе данных
Трек  8  нет в базе данных
Трек  9  нет в базе данных
Трек 10  нет в базе данных
Трек 11  нет в базе данных
Трек 12  нет в базе данных
Трек 13  нет в базе данных
Трек 14  нет в базе данных
Трек 15  нет в базе данных
Ни одного трека нет в базе AccurateRip
Конец отчёта
Хочешь скачать, но не можешь из-за отсутствия сидов - пиши в личку!
Правила, инструкции, FAQ!!!
Торрент  Добавлен [26 июн 2020, 17:10] Скачать торрент Магнет ссылка
Скачать торрент
[ Размер 18.2 КБ / Просмотров 1 ]

Статус
Проверен 
 
Размер  855.77 МБ
Приватный: Нет (DHT включён)
.torrent скачан  0
 


     Отправить личное сообщение
   
Страница 1 из 1
Показать сообщения за:  Поле сортировки  
Начать новую тему Ответить на тему


Сейчас этот форум просматривают: нет зарегистрированных пользователей и гости: 0


Вы не можете начинать темы
Вы не можете отвечать на сообщения
Вы не можете редактировать свои сообщения
Вы не можете удалять свои сообщения
Вы не можете добавлять вложения

Перейти:  
cron