Начать новую тему Ответить на тему
Статистика раздачи
Размер: 628.86 МБ | Добавлен: 26 июн 2020, 17:14 | Скачали: 0
Сидеров: 0  [0 байт/сек]    Личеров: 0  [0 байт/сек]
Пред. тема | След. тема 

Автор
Сообщение

СообщениеДобавлено: 26 июн 2020, 17:14 

Ответить с цитатой 

Lola Angst / The Council Of Love
Жанр: EBM, Industrial, Electro, Synth-pop
Страна-производитель диска: Germany
Год издания диска: 2006
Издатель (лейбл): Wannsee Records
Номер по каталогу: 012 101 2 SEE
Формат: CD, Album, Enhanced, Digipak
Аудиокодек: FLAC (*.flac)
Тип рипа: image+.cue
Битрейт аудио: lossless
Продолжительность: 0:51:05.60
Источник (релизер): Физический носитель (Собственный рип с оригинала).
Наличие сканов в содержимом раздачи: да
Треклист:
01. Children Of The Dark [4:49]
02. The Council Of Love [4:26]
03. Shes A Dark DJ [4:30]
04. Am I Dead?? [4:25]
05. King Of The Mad [4:53]
06. Something To Do [3:44]
07. Cold Hearted Bitch [4:11]
08. In Space [4:05]
09. No Fear Of Life [3:55]
10. No Permission To Live [4:30]
11. You Let Me Kill [3:46]
12. La La La Lola [3:52]
+ bonus ( два клипа на песни: Am I Dead??, Shes A Dark DJ )
Код:
Exact Audio Copy V1.0 beta 3 from 29. August 2011
EAC extraction logfile from 30. January 2012, 18:54
Lola Angst / The Council Of Love
Used drive  : PLEXTOR BDDVDR PX-B320SA   Adapter: 0  ID: 2
Read mode               : Secure
Utilize accurate stream : Yes
Defeat audio cache      : Yes
Make use of C2 pointers : No
Read offset correction                      : 6
Overread into Lead-In and Lead-Out          : No
Fill up missing offset samples with silence : Yes
Delete leading and trailing silent blocks   : No
Null samples used in CRC calculations       : Yes
Used interface                              : Native Win32 interface for Win NT & 2000
Used output format              : User Defined Encoder
Selected bitrate                : 128 kBit/s
Quality                         : High
Add ID3 tag                     : No
Command line compressor         : C:\Program Files (x86)\FLAC\flac.exe
Additional command line options : -V -8 -T "Date=%year%" -T "Genre=%genre%" %source%
TOC of the extracted CD
     Track |   Start  |  Length  | Start sector | End sector
    ---------------------------------------------------------
        1  |  0:00.00 |  4:48.68 |         0    |    21667
        2  |  4:48.68 |  4:26.15 |     21668    |    41632
        3  |  9:15.08 |  4:29.40 |     41633    |    61847
        4  | 13:44.48 |  4:25.27 |     61848    |    81749
        5  | 18:10.00 |  4:52.50 |     81750    |   103699
        6  | 23:02.50 |  3:44.26 |    103700    |   120525
        7  | 26:47.01 |  4:10.57 |    120526    |   139332
        8  | 30:57.58 |  4:05.12 |    139333    |   157719
        9  | 35:02.70 |  3:55.01 |    157720    |   175345
       10  | 38:57.71 |  4:29.65 |    175346    |   195585
       11  | 43:27.61 |  3:46.33 |    195586    |   212568
       12  | 47:14.19 |  3:51.41 |    212569    |   229934
       13  | 53:37.60 |  7:10.07 |    241335    |   273591
Range status and errors
Selected range
     Filename D:\Lola Angst - The Council Of Love (2006)\Lola Angst - The Council Of Love.wav
     Peak level 100.0 %
     Extraction speed 7.7 X
     Range quality 100.0 %
     Test CRC 5F051E17
     Copy CRC 5F051E17
     Copy OK
No errors occurred
AccurateRip summary
Track  1  not present in database
Track  2  not present in database
Track  3  not present in database
Track  4  not present in database
Track  5  not present in database
Track  6  not present in database
Track  7  not present in database
Track  8  not present in database
Track  9  not present in database
Track 10  not present in database
Track 11  not present in database
Track 12  not present in database
None of the tracks are present in the AccurateRip database
End of status report
==== Log checksum 7B52D577F1A3A81C562C8F8FABD6B5A4B70EBF3C6933BA1710803843D66B4C2A ====
Код:
General
Complete name                            : E:\am i dead.mp4
Format                                   : MPEG-4
Format profile                           : Base Media / Version 2
Codec ID                                 : mp42
File size                                : 28.9 MiB
Duration                                 : 3mn 55s
Overall bit rate                         : 1 029 Kbps
Encoded date                             : UTC 2005-06-28 12:16:03
Tagged date                              : UTC 2005-06-28 12:16:53
Video
ID                                       : 2
Format                                   : MPEG-4 Visual
Format profile                           : Advanced Simple@L3
Format settings, BVOP                    : Yes
Format settings, QPel                    : No
Format settings, GMC                     : No warppoints
Format settings, Matrix                  : Default (H.263)
Codec ID                                 : 20
Duration                                 : 3mn 55s
Bit rate                                 : 930 Kbps
Width                                    : 320 pixels
Height                                   : 240 pixels
Display aspect ratio                     : 4:3
Frame rate mode                          : Constant
Frame rate                               : 25.000 fps
Color space                              : YUV
Bit depth                                : 8 bits
Scan type                                : Progressive
Compression mode                         : Lossy
Bits/(Pixel*Frame)                       : 0.485
Stream size                              : 26.1 MiB (90%)
Title                                    : Apple Video Mediensteuerung
Language                                 : English
Encoded date                             : UTC 2005-06-28 12:05:32
Tagged date                              : UTC 2005-06-28 12:16:53
Audio
ID                                       : 1
Format                                   : AAC
Format/Info                              : Advanced Audio Codec
Format profile                           : LC
Codec ID                                 : 40
Duration                                 : 3mn 55s
Bit rate mode                            : Variable
Bit rate                                 : 96.0 Kbps
Maximum bit rate                         : 128 Kbps
Channel(s)                               : 2 channels
Channel positions                        : Front: L R
Sampling rate                            : 32.0 KHz
Compression mode                         : Lossy
Stream size                              : 2.69 MiB (9%)
Title                                    : Apple Ton Mediensteuerung
Language                                 : English
Encoded date                             : UTC 2005-06-28 12:05:32
Tagged date                              : UTC 2005-06-28 12:16:53
Код:
General
Complete name                            : E:\dark dj.mp4
Format                                   : MPEG-4
Format profile                           : Base Media / Version 2
Codec ID                                 : mp42
File size                                : 33.4 MiB
Duration                                 : 3mn 35s
Overall bit rate                         : 1 300 Kbps
Encoded date                             : UTC 2005-12-27 16:20:41
Tagged date                              : UTC 2005-12-27 16:21:44
Video
ID                                       : 2
Format                                   : MPEG-4 Visual
Format profile                           : Advanced Simple@L3
Format settings, BVOP                    : Yes
Format settings, QPel                    : No
Format settings, GMC                     : No warppoints
Format settings, Matrix                  : Default (H.263)
Codec ID                                 : 20
Duration                                 : 3mn 35s
Bit rate                                 : 1 040 Kbps
Width                                    : 320 pixels
Height                                   : 240 pixels
Display aspect ratio                     : 4:3
Frame rate mode                          : Constant
Frame rate                               : 25.000 fps
Color space                              : YUV
Bit depth                                : 8 bits
Scan type                                : Progressive
Compression mode                         : Lossy
Bits/(Pixel*Frame)                       : 0.542
Stream size                              : 26.8 MiB (80%)
Title                                    : Apple Video Mediensteuerung
Language                                 : English
Encoded date                             : UTC 2005-12-27 16:11:12
Tagged date                              : UTC 2005-12-27 16:21:44
Audio
ID                                       : 1
Format                                   : AAC
Format/Info                              : Advanced Audio Codec
Format profile                           : LC
Codec ID                                 : 40
Duration                                 : 3mn 35s
Bit rate mode                            : Constant
Bit rate                                 : 256 Kbps
Channel(s)                               : 2 channels
Channel positions                        : Front: L R
Sampling rate                            : 44.1 KHz
Compression mode                         : Lossy
Stream size                              : 6.59 MiB (20%)
Title                                    : Apple Ton Mediensteuerung
Language                                 : English
Encoded date                             : UTC 2005-12-27 16:11:11
Tagged date                              : UTC 2005-12-27 16:21:44
Всё мультимедийное содержимое данного издания помещено в папку Extra.
На оригинале, согласно ТОС, дата-трек находится в конце диска, оба видео-файла находятся в корневом каталоге диска, с меткой "bonus".
Правила, инструкции, FAQ!!!
Торрент  Добавлен [26 июн 2020, 17:14] Скачать торрент Магнет ссылка
Скачать торрент
[ Размер 14.05 КБ / Просмотров 11 ]

Статус
Проверен 
 
Размер  628.86 МБ
Приватный: Нет (DHT включён)
.torrent скачан  0
 


     Отправить личное сообщение
   
Страница 1 из 1
Показать сообщения за:  Поле сортировки  
Начать новую тему Ответить на тему


Сейчас этот форум просматривают: нет зарегистрированных пользователей и гости: 0


Вы не можете начинать темы
Вы не можете отвечать на сообщения
Вы не можете редактировать свои сообщения
Вы не можете удалять свои сообщения
Вы не можете добавлять вложения

Перейти:  
cron