Начать новую тему Ответить на тему
Статистика раздачи
Размер: 225.01 МБ | Добавлен: 26 июн 2020, 19:51 | Скачали: 0
Сидеров: 0  [0 байт/сек]    Личеров: 0  [0 байт/сек]
Пред. тема | След. тема 

Автор
Сообщение

СообщениеДобавлено: 26 июн 2020, 19:51 

Ответить с цитатой 

Lights Of Euphoria / One Nation
Жанр: EBM, Industrial
Страна-производитель диска: Germany
Год издания диска: 2004
Издатель (лейбл): Accession Records
Номер по каталогу: A 075
Аудио кодек: FLAC (*.flac)
Тип рипа: tracks+.cue
Битрейт аудио: lossless
Продолжительность: 28:35
Источник (релизер): из личной коллекции
Наличие сканов в содержимом раздачи: да
Треклист:
1. One Nation (Club Remix) (5:56)
2. You Better Run (4:28)
3. One Nation (Le-Rav vs. Massiv in Mensch Remix) (5:13)
4. You Better run (Painbastard Remix) (4:54)
5. One Nation (Syrian Remix) (4:00)
6. You Better Run (Heimaterde Remix) (4:02)
Код:
Exact Audio Copy V0.99 prebeta 4 from 23. January 2008
EAC extraction logfile from 18. December 2010, 15:16
Lights Of Euphoria / One Nation
Used drive  : Optiarc BD ROM BC-5500A   Adapter: 0  ID: 0
Read mode               : Secure
Utilize accurate stream : Yes
Defeat audio cache      : Yes
Make use of C2 pointers : No
Read offset correction                      : 48
Overread into Lead-In and Lead-Out          : No
Fill up missing offset samples with silence : Yes
Delete leading and trailing silent blocks   : No
Null samples used in CRC calculations       : Yes
Used interface                              : Native Win32 interface for Win NT & 2000
Gap handling                                : Appended to previous track
Used output format              : User Defined Encoder
Selected bitrate                : 128 kBit/s
Quality                         : High
Add ID3 tag                     : No
Command line compressor         : C:\Program Files\Exact Audio Copy\Flac\flac.exe
Additional command line options : -8 -V -T "ARTIST=%a" -T "TITLE=%t" -T "ALBUM=%g" -T "DATE=%y" -T "TRACKNUMBER=%n" -T "GENRE=%m" -T "COMMENT=EAC FLAC -8" %s
TOC of the extracted CD
     Track |   Start  |  Length  | Start sector | End sector
    ---------------------------------------------------------
        1  |  0:00.00 |  5:56.24 |         0    |    26723
        2  |  5:56.24 |  4:28.37 |     26724    |    46860
        3  | 10:24.61 |  5:13.28 |     46861    |    70363
        4  | 15:38.14 |  4:54.57 |     70364    |    92470
        5  | 20:32.71 |  4:00.42 |     92471    |   110512
        6  | 24:33.38 |  4:02.35 |    110513    |   128697
Track  1
     Filename D:\Lights Of Euphoria - 2004 - One Nation\01 - One Nation (Club Remix).wav
     Pre-gap length  0:00:02.00
     Peak level 100.0 %
     Track quality 99.9 %
     Test CRC F53339DC
     Copy CRC F53339DC
     Track not present in AccurateRip database
     Copy OK
Track  2
     Filename D:\Lights Of Euphoria - 2004 - One Nation\02 - You Better Run.wav
     Pre-gap length  0:00:02.00
     Peak level 100.0 %
     Track quality 100.0 %
     Test CRC DFDDBA77
     Copy CRC DFDDBA77
     Track not present in AccurateRip database
     Copy OK
Track  3
     Filename D:\Lights Of Euphoria - 2004 - One Nation\03 - One Nation (Le-Rav vs. Massiv in Mensch Remix).wav
     Pre-gap length  0:00:02.00
     Peak level 100.0 %
     Track quality 100.0 %
     Test CRC C9133D47
     Copy CRC C9133D47
     Track not present in AccurateRip database
     Copy OK
Track  4
     Filename D:\Lights Of Euphoria - 2004 - One Nation\04 - You Better run (Painbastard Remix).wav
     Pre-gap length  0:00:02.00
     Peak level 74.8 %
     Track quality 100.0 %
     Test CRC 53EB8181
     Copy CRC 53EB8181
     Track not present in AccurateRip database
     Copy OK
Track  5
     Filename D:\Lights Of Euphoria - 2004 - One Nation\05 - One Nation (Syrian Remix).wav
     Pre-gap length  0:00:02.00
     Peak level 95.4 %
     Track quality 100.0 %
     Test CRC C2093A16
     Copy CRC C2093A16
     Track not present in AccurateRip database
     Copy OK
Track  6
     Filename D:\Lights Of Euphoria - 2004 - One Nation\06 - You Better Run (Heimaterde Remix).wav
     Pre-gap length  0:00:02.00
     Peak level 100.0 %
     Track quality 100.0 %
     Test CRC A13293C4
     Copy CRC A13293C4
     Track not present in AccurateRip database
     Copy OK
None of the tracks are present in the AccurateRip database
No errors occurred
End of status report
Код:
REM GENRE Industrial
REM DATE 2004
REM DISCID 4806B306
REM COMMENT "ExactAudioCopy v0.99pb4"
PERFORMER "Lights Of Euphoria"
TITLE "One Nation"
FILE "01 - One Nation (Club Remix).flac" WAVE
  TRACK 01 AUDIO
    TITLE "One Nation (Club Remix)"
    PERFORMER "Lights Of Euphoria"
    INDEX 01 00:00:00
  TRACK 02 AUDIO
    TITLE "You Better Run"
    PERFORMER "Lights Of Euphoria"
    INDEX 00 05:54:24
FILE "02 - You Better Run.flac" WAVE
    INDEX 01 00:00:00
  TRACK 03 AUDIO
    TITLE "One Nation (Le-Rav vs. Massiv in Mensch Remix)"
    PERFORMER "Lights Of Euphoria"
    INDEX 00 04:26:37
FILE "03 - One Nation (Le-Rav vs. Massiv in Mensch Remix).flac" WAVE
    INDEX 01 00:00:00
  TRACK 04 AUDIO
    TITLE "You Better run (Painbastard Remix)"
    PERFORMER "Lights Of Euphoria"
    INDEX 00 05:11:28
FILE "04 - You Better run (Painbastard Remix).flac" WAVE
    INDEX 01 00:00:00
  TRACK 05 AUDIO
    TITLE "One Nation (Syrian Remix)"
    PERFORMER "Lights Of Euphoria"
    INDEX 00 04:52:57
FILE "05 - One Nation (Syrian Remix).flac" WAVE
    INDEX 01 00:00:00
  TRACK 06 AUDIO
    TITLE "You Better Run (Heimaterde Remix)"
    PERFORMER "Lights Of Euphoria"
    INDEX 00 03:58:42
FILE "06 - You Better Run (Heimaterde Remix).flac" WAVE
    INDEX 01 00:00:00
Правила, инструкции, FAQ!!!
Торрент  Добавлен [26 июн 2020, 19:51] Скачать торрент Магнет ссылка
Скачать торрент
[ Размер 18.81 КБ / Просмотров 5 ]

Статус
Проверен 
 
Размер  225.01 МБ
Приватный: Нет (DHT включён)
.torrent скачан  0
 


     Отправить личное сообщение
   
Страница 1 из 1
Показать сообщения за:  Поле сортировки  
Начать новую тему Ответить на тему


Сейчас этот форум просматривают: нет зарегистрированных пользователей и гости: 0


Вы не можете начинать темы
Вы не можете отвечать на сообщения
Вы не можете редактировать свои сообщения
Вы не можете удалять свои сообщения
Вы не можете добавлять вложения

Перейти:  
cron