Начать новую тему Ответить на тему
Статистика раздачи
Размер: 480.77 МБ | Добавлен: 26 июн 2020, 19:51 | Скачали: 0
Сидеров: 0  [0 байт/сек]    Личеров: 0  [0 байт/сек]
Пред. тема | След. тема 

Автор
Сообщение

СообщениеДобавлено: 26 июн 2020, 19:51 

Ответить с цитатой 

Lights Of Euphoria - Krieg Gegen Die Maschinen (Limited Edition 1000 copies)
Жанр: EBM, Industrial
Год выпуска диска: 2003
Производитель диска: Германия
Аудио кодек: APE
Тип рипа: image+.cue
Битрейт аудио: lossless
Продолжительность: 01:15:24
Трэклист:
01.Vorwort
02.True Life
03.Consequence (Face Yourself)
04.Nothing At All
05.Interface I
06.Aggression Pact
07.Wings Of Time
08.Interface II
09.Fly To Target (Shellshox Remix)
Remix - Grendel
10.Shadows Merging
11.Trapped
12.Dyskonnect
13.Interface III
14.True Life (Hecq Version)
Remix - Hecq
15.he Firm (Mirrorman Mix)
Remix - Mirrorman, The
16.Show Me Your Tears (Apoptygma Berzerk Vs. Industrialheads Rmx)
Remix - Apoptygma Berzerk , Industrial Heads
17.True Life (NamNamBulu Remix)
Remix - NamNamBulu
18.Interface IV
Код:
Exact Audio Copy V0.99 prebeta 5 from 4. May 2009
Отчёт EAC об извлечении, выполненном 27. июля 2009, 14:46
Lights Of Euphoria / Krieg Gegen Die Maschinen
Дисковод: Optiarc DVD RW AD-7201S   Adapter: 1  ID: 1
Режим чтения                 : Достоверность
Использование точного потока : Да
Отключение кэша аудио        : Да
Использование указателей C2  : Нет
Коррекция смещения при чтении                     : 48
Способность читать области Lead-in и Lead-out     : Нет
Заполнение пропущенных сэмплов тишиной            : Да
Удаление блоков с тишиной в начале и конце        : Нет
При вычислениях CRC использовались нулевые сэмплы : Да
Интерфейс                                         : Установленный внешний ASPI-интерфейс
Выходной формат : Внутренние WAV-операции
Формат сэмплов  : 44.100 Гц; 16 бит; стерео
TOC извлечённого CD
     Трек |   Старт  | Длительность | Начальный сектор | Конечный сектор
    ---------------------------------------------------------------------
       1  |  0:00.00 |    0:49.32   |           0      |       3706
       2  |  0:49.32 |    4:01.37   |        3707      |      21818
       3  |  4:50.69 |    5:00.46   |       21819      |      44364
       4  |  9:51.40 |    5:07.57   |       44365      |      67446
       5  | 14:59.22 |    3:42.54   |       67447      |      84150
       6  | 18:42.01 |    4:19.45   |       84151      |     103620
       7  | 23:01.46 |    4:41.17   |      103621      |     124712
       8  | 27:42.63 |    4:32.22   |      124713      |     145134
       9  | 32:15.10 |    4:29.01   |      145135      |     165310
      10  | 36:44.11 |    5:21.52   |      165311      |     189437
      11  | 42:05.63 |    3:30.16   |      189438      |     205203
      12  | 45:36.04 |    4:50.38   |      205204      |     226991
      13  | 50:26.42 |    0:30.33   |      226992      |     229274
      14  | 50:57.00 |    6:01.01   |      229275      |     256350
      15  | 56:58.01 |    5:12.19   |      256351      |     279769
      16  | 62:10.20 |    6:42.02   |      279770      |     309921
      17  | 68:52.22 |    6:01.31   |      309922      |     337027
      18  | 74:53.53 |    0:32.21   |      337028      |     339448
Характеристики диапазона извлечения и сообщения об ошибках
Выбранный диапазон
     Имя файла D:\Documents and Settings\Rodexx\Рабочий стол\Lights Of Euphoria-Krieg Gegen Die Maschinen\Lights Of Euphoria - Krieg Gegen Die Maschinen.wav
     Пиковый уровень 100.0 %
     Качество диапазона 100.0 %
     СRC теста 379687В9
     CRC копии 379687B9
     Копирование... OK
Ошибок не произошло
Конец отчёта
Label: Accession Records
Catalog#: A 061
Format: CD, Limited Edition
Notes: Originally released under the distribution number EFA 23461-2 before Accession Records had its current catalog number format.
Limited Edition of 1000 copies.

Правила, инструкции, FAQ!!!
Торрент  Добавлен [26 июн 2020, 19:51] Скачать торрент Магнет ссылка
Скачать торрент
[ Размер 19.54 КБ / Просмотров 6 ]

Статус
Проверен 
 
Размер  480.77 МБ
Приватный: Нет (DHT включён)
.torrent скачан  0
 


     Отправить личное сообщение
   
Страница 1 из 1
Показать сообщения за:  Поле сортировки  
Начать новую тему Ответить на тему


Сейчас этот форум просматривают: нет зарегистрированных пользователей и гости: 0


Вы не можете начинать темы
Вы не можете отвечать на сообщения
Вы не можете редактировать свои сообщения
Вы не можете удалять свои сообщения
Вы не можете добавлять вложения

Перейти:  
cron