Начать новую тему Ответить на тему
Статистика раздачи
Размер: 472.11 МБ | Добавлен: 26 июн 2020, 19:51 | Скачали: 0
Сидеров: 0  [0 байт/сек]    Личеров: 0  [0 байт/сек]
Пред. тема | След. тема 

Автор
Сообщение

СообщениеДобавлено: 26 июн 2020, 19:51 

Ответить с цитатой 

Lights Of Euphoria / Fading Moments
Жанр: EBM, Industrial
Страна-производитель диска: Germany
Год издания диска: 2004
Издатель (лейбл): Accession Records
Номер по каталогу: A 068
Аудио кодек: FLAC (*.flac)
Тип рипа: tracks+.cue
Битрейт аудио: lossless
Продолжительность: 1:00:57
Источник (релизер): из личной коллекции
Наличие сканов в содержимом раздачи: да
Треклист:
1. Fading Moments (Club Mix) (5:35)
2. Fading Moments (E-Craft Remix) (5:50)
3. Fading Moments (Feindflug Karaoke Mischung) (6:23)
4. Fading Moments ([S.I.T.D.] Remix) (6:13)
5. Fly To Target (Dioxyde Remix) (4:29)
6. Fading Moments (Namnambulu Remix) (5:02)
7. Fading Moments (Implant Remix) (6:06)
8. Trapped (Hecqfire Version) (4:37)
9. Fading Moments (Transistorcrash Remix) (5:17)
10. Fading Moments (Feindflug Vocal Remix) (6:23)
11. Human Transmission (Bonus Beats) (5:00)
Код:
Exact Audio Copy V0.99 prebeta 4 from 23. January 2008
EAC extraction logfile from 30. November 2010, 5:12
Lights Of Euphoria / Fading Moments
Used drive  : Optiarc BD ROM BC-5500A   Adapter: 0  ID: 0
Read mode               : Secure
Utilize accurate stream : Yes
Defeat audio cache      : Yes
Make use of C2 pointers : No
Read offset correction                      : 48
Overread into Lead-In and Lead-Out          : No
Fill up missing offset samples with silence : Yes
Delete leading and trailing silent blocks   : No
Null samples used in CRC calculations       : Yes
Used interface                              : Native Win32 interface for Win NT & 2000
Gap handling                                : Appended to previous track
Used output format              : User Defined Encoder
Selected bitrate                : 128 kBit/s
Quality                         : High
Add ID3 tag                     : No
Command line compressor         : C:\Program Files\Exact Audio Copy\Flac\flac.exe
Additional command line options : -8 -V -T "ARTIST=%a" -T "TITLE=%t" -T "ALBUM=%g" -T "DATE=%y" -T "TRACKNUMBER=%n" -T "GENRE=%m" -T "COMMENT=EAC FLAC -8" %s
TOC of the extracted CD
     Track |   Start  |  Length  | Start sector | End sector
    ---------------------------------------------------------
        1  |  0:00.00 |  5:35.11 |         0    |    25135
        2  |  5:35.11 |  5:50.63 |     25136    |    51448
        3  | 11:25.74 |  6:23.26 |     51449    |    80199
        4  | 17:49.25 |  6:13.03 |     80200    |   108177
        5  | 24:02.28 |  4:29.02 |    108178    |   128354
        6  | 28:31.30 |  5:02.37 |    128355    |   151041
        7  | 33:33.67 |  6:06.65 |    151042    |   178556
        8  | 39:40.57 |  4:37.25 |    178557    |   199356
        9  | 44:18.07 |  5:17.28 |    199357    |   223159
       10  | 49:35.35 |  6:23.22 |    223160    |   251906
       11  | 55:58.57 |  5:00.04 |    251907    |   274410
Track  1
     Filename D:\Lights Of Euphoria - 2004 - Fading Moments\01 - Fading Moments (Club Mix).wav
     Pre-gap length  0:00:02.00
     Peak level 99.9 %
     Track quality 100.0 %
     Test CRC 7CE1989B
     Copy CRC 7CE1989B
     Accurately ripped (confidence 1)  [DCA2AF8A]
     Copy OK
Track  2
     Filename D:\Lights Of Euphoria - 2004 - Fading Moments\02 - Fading Moments (E-Craft Remix).wav
     Pre-gap length  0:00:02.00
     Peak level 99.9 %
     Track quality 100.0 %
     Test CRC F824C11F
     Copy CRC F824C11F
     Accurately ripped (confidence 1)  [6E550366]
     Copy OK
Track  3
     Filename D:\Lights Of Euphoria - 2004 - Fading Moments\03 - Fading Moments (Feindflug Karaoke Mischung).wav
     Pre-gap length  0:00:02.00
     Peak level 99.9 %
     Track quality 100.0 %
     Test CRC BF4FBF5B
     Copy CRC BF4FBF5B
     Accurately ripped (confidence 1)  [E9AC09EF]
     Copy OK
Track  4
     Filename D:\Lights Of Euphoria - 2004 - Fading Moments\04 - Fading Moments ([S.I.T.D.] Remix).wav
     Pre-gap length  0:00:02.00
     Peak level 99.9 %
     Track quality 100.0 %
     Test CRC 8FA8DBAB
     Copy CRC 8FA8DBAB
     Accurately ripped (confidence 1)  [AC0E0A03]
     Copy OK
Track  5
     Filename D:\Lights Of Euphoria - 2004 - Fading Moments\05 - Fly To Target (Dioxyde Remix).wav
     Pre-gap length  0:00:02.00
     Peak level 99.9 %
     Track quality 100.0 %
     Test CRC 5CE8F132
     Copy CRC 5CE8F132
     Cannot be verified as accurate (confidence 1)  [EE4A7F98], AccurateRip returned [7935410D]
     Copy OK
Track  6
     Filename D:\Lights Of Euphoria - 2004 - Fading Moments\06 - Fading Moments (Namnambulu Remix).wav
     Pre-gap length  0:00:02.00
     Peak level 99.9 %
     Track quality 99.9 %
     Test CRC 9DF35B2D
     Copy CRC 9DF35B2D
     Cannot be verified as accurate (confidence 1)  [43C782E9], AccurateRip returned [F031B11D]
     Copy OK
Track  7
     Filename D:\Lights Of Euphoria - 2004 - Fading Moments\07 - Fading Moments (Implant Remix).wav
     Pre-gap length  0:00:02.00
     Peak level 99.9 %
     Track quality 100.0 %
     Test CRC B4F37B11
     Copy CRC B4F37B11
     Cannot be verified as accurate (confidence 1)  [711E80BA], AccurateRip returned [6B627262]
     Copy OK
Track  8
     Filename D:\Lights Of Euphoria - 2004 - Fading Moments\08 - Trapped (Hecqfire Version).wav
     Pre-gap length  0:00:02.00
     Peak level 99.9 %
     Track quality 100.0 %
     Test CRC 515AABF0
     Copy CRC 515AABF0
     Cannot be verified as accurate (confidence 1)  [7AFE5D3E], AccurateRip returned [5F5527CC]
     Copy OK
Track  9
     Filename D:\Lights Of Euphoria - 2004 - Fading Moments\09 - Fading Moments (Transistorcrash Remix).wav
     Pre-gap length  0:00:02.00
     Peak level 99.9 %
     Track quality 100.0 %
     Test CRC AB025216
     Copy CRC AB025216
     Cannot be verified as accurate (confidence 1)  [0D7F1679], AccurateRip returned [1C831565]
     Copy OK
Track 10
     Filename D:\Lights Of Euphoria - 2004 - Fading Moments\10 - Fading Moments (Feindflug Vocal Remix).wav
     Pre-gap length  0:00:02.00
     Peak level 99.9 %
     Track quality 100.0 %
     Test CRC 9DC93C20
     Copy CRC 9DC93C20
     Cannot be verified as accurate (confidence 1)  [E4C420E8], AccurateRip returned [2F31BAF7]
     Copy OK
Track 11
     Filename D:\Lights Of Euphoria - 2004 - Fading Moments\11 - Human Transmission (Bonus Beats).wav
     Pre-gap length  0:00:02.00
     Peak level 99.9 %
     Track quality 100.0 %
     Test CRC A8A87C29
     Copy CRC A8A87C29
     Cannot be verified as accurate (confidence 1)  [78FCA155], AccurateRip returned [D3711F21]
     Copy OK
 4 track(s) accurately ripped
 7 track(s) could not be verified as accurate
Some tracks could not be verified as accurate
No errors occurred
End of status report
Код:
REM GENRE Industrial
REM DATE 2004
REM DISCID 900E4A0B
REM COMMENT "ExactAudioCopy v0.99pb4"
PERFORMER "Lights Of Euphoria"
TITLE "Fading Moments"
FILE "01 - Fading Moments (Club Mix).flac" WAVE
  TRACK 01 AUDIO
    TITLE "Fading Moments (Club Mix)"
    PERFORMER "Lights Of Euphoria"
    INDEX 01 00:00:00
  TRACK 02 AUDIO
    TITLE "Fading Moments (E-Craft Remix)"
    PERFORMER "Lights Of Euphoria"
    INDEX 00 05:33:11
FILE "02 - Fading Moments (E-Craft Remix).flac" WAVE
    INDEX 01 00:00:00
  TRACK 03 AUDIO
    TITLE "Fading Moments (Feindflug Karaoke Mischung)"
    PERFORMER "Lights Of Euphoria"
    INDEX 00 05:48:63
FILE "03 - Fading Moments (Feindflug Karaoke Mischung).flac" WAVE
    INDEX 01 00:00:00
  TRACK 04 AUDIO
    TITLE "Fading Moments ([S.I.T.D.] Remix)"
    PERFORMER "Lights Of Euphoria"
    INDEX 00 06:21:26
FILE "04 - Fading Moments ([S.I.T.D.] Remix).flac" WAVE
    INDEX 01 00:00:00
  TRACK 05 AUDIO
    TITLE "Fly To Target (Dioxyde Remix)"
    PERFORMER "Lights Of Euphoria"
    INDEX 00 06:11:03
FILE "05 - Fly To Target (Dioxyde Remix).flac" WAVE
    INDEX 01 00:00:00
  TRACK 06 AUDIO
    TITLE "Fading Moments (Namnambulu Remix)"
    PERFORMER "Lights Of Euphoria"
    INDEX 00 04:27:02
FILE "06 - Fading Moments (Namnambulu Remix).flac" WAVE
    INDEX 01 00:00:00
  TRACK 07 AUDIO
    TITLE "Fading Moments (Implant Remix)"
    PERFORMER "Lights Of Euphoria"
    INDEX 00 05:00:37
FILE "07 - Fading Moments (Implant Remix).flac" WAVE
    INDEX 01 00:00:00
  TRACK 08 AUDIO
    TITLE "Trapped (Hecqfire Version)"
    PERFORMER "Lights Of Euphoria"
    INDEX 00 06:04:65
FILE "08 - Trapped (Hecqfire Version).flac" WAVE
    INDEX 01 00:00:00
  TRACK 09 AUDIO
    TITLE "Fading Moments (Transistorcrash Remix)"
    PERFORMER "Lights Of Euphoria"
    INDEX 00 04:35:25
FILE "09 - Fading Moments (Transistorcrash Remix).flac" WAVE
    INDEX 01 00:00:00
  TRACK 10 AUDIO
    TITLE "Fading Moments (Feindflug Vocal Remix)"
    PERFORMER "Lights Of Euphoria"
    INDEX 00 05:15:28
FILE "10 - Fading Moments (Feindflug Vocal Remix).flac" WAVE
    INDEX 01 00:00:00
  TRACK 11 AUDIO
    TITLE "Human Transmission (Bonus Beats)"
    PERFORMER "Lights Of Euphoria"
    INDEX 00 06:21:22
FILE "11 - Human Transmission (Bonus Beats).flac" WAVE
    INDEX 01 00:00:00
Правила, инструкции, FAQ!!!
Торрент  Добавлен [26 июн 2020, 19:51] Скачать торрент Магнет ссылка
Скачать торрент
[ Размер 20.07 КБ / Просмотров 7 ]

Статус
Проверен 
 
Размер  472.11 МБ
Приватный: Нет (DHT включён)
.torrent скачан  0
 


     Отправить личное сообщение
   
Страница 1 из 1
Показать сообщения за:  Поле сортировки  
Начать новую тему Ответить на тему


Сейчас этот форум просматривают: нет зарегистрированных пользователей и гости: 0


Вы не можете начинать темы
Вы не можете отвечать на сообщения
Вы не можете редактировать свои сообщения
Вы не можете удалять свои сообщения
Вы не можете добавлять вложения

Перейти:  
cron