Начать новую тему Ответить на тему
Статистика раздачи
Размер: 1007.88 МБ | Добавлен: 26 июн 2020, 20:12 | Скачали: 0
Сидеров: 1  [0 байт/сек]    Личеров: 0  [0 байт/сек]
Пред. тема | След. тема 

Автор
Сообщение

СообщениеДобавлено: 26 июн 2020, 20:12 

Ответить с цитатой 

Leaether Strip (Leæther Strip) / Retention No 2 (2CD Box Limited Edition)
#777#777Жанр: EBM, Industrial
Страна-производитель диска: Belgiun
Год издания диска: 2008
Издатель (лейбл): Alfa Matrix
Номер по каталогу: AM-2130DCD
Страна: Denmark
Аудио кодек: FLAC (*.flac)
Тип рипа: image+.cue
Битрейт аудио: lossless
Продолжительность: 1:04:12.33 + 1:05:00.52
Источник (релизер): 2CD Box из личной коллекции.
Наличие сканов в содержимом раздачи: да
Треклист:
CD 1 - Science For The Satanic Citizen
01. Zyklon B 5:23
02. G.A.W.M. 5:24
03. Rotation (Axis Off) 4:58
04. Satanic Citizen 6:02
05. What's Hell Really Like? 3:54
06. Law Of Jante 2:38
07. Cast-Away 5:37
08. Torment Me 5:18
09. Antius 4:46
10. Nosecandy 4:44
11. Mohawk 6:29
12. Black Gold 2:48
13. G.A.W.M. (Technopolis 3 Remix) 6:11
CD 2 - Science For The Satanic Spawn
01. Satanic Citizen 09 7:47
02. Antius 09 7:45
03. Rotation (Axis Off) 09 6:52
04. Torment Me 09 6:25
05. Nosecandy 09 4:44
06. Cast-away 09 7:24
07. Mohawk 09 7:23
08. G.A.W.M. 09 5:23
09. Law Of Jante 09 5:08
10. What's Hell Really Like? 09 6:08
Код:
Exact Audio Copy V0.99 prebeta 5 from 4. May 2009
Отчёт EAC об извлечении, выполненном 23. октября 2010, 13:35
Leaether Strip / Science for the satanic citizen (Remastered)
Дисковод: TSSTcorpCDDVDW TS-L632H   Adapter: 0  ID: 0
Режим чтения                 : Достоверность
Использование точного потока : Да
Отключение кэша аудио        : Да
Использование указателей C2  : Нет
Коррекция смещения при чтении                     : 6
Способность читать области Lead-in и Lead-out     : Нет
Заполнение пропущенных сэмплов тишиной            : Да
Удаление блоков с тишиной в начале и конце        : Нет
При вычислениях CRC использовались нулевые сэмплы : Да
Интерфейс                                         : Встроенный Win32-интерфейс для Win NT/2000
Выходной формат          : Пользовательский кодировщик
Выбранный битрейт        : 1024 kBit/s
Качество                 : Высокий
Добавление ID3-тэга      : Нет
Утилита сжатия           : C:\Program Files\Exact Audio Copy\FLAC\FLAC.EXE
Дополнительные параметры : -6 -V -T "ARTIST=%a" -T "TITLE=%t" -T "ALBUM=%g" -T "DATE=%y" -T "TRACKNUMBER=%n" -T "GENRE=%m" -T "COMMENT=%e" %s -o %d
TOC извлечённого CD
     Трек |   Старт  | Длительность | Начальный сектор | Конечный сектор
    ---------------------------------------------------------------------
       1  |  0:00.00 |    5:23.25   |           0      |      24249
       2  |  5:23.25 |    5:24.00   |       24250      |      48549
       3  | 10:47.25 |    4:57.50   |       48550      |      70874
       4  | 15:45.00 |    6:02.00   |       70875      |      98024
       5  | 21:47.00 |    3:54.00   |       98025      |     115574
       6  | 25:41.00 |    2:38.25   |      115575      |     127449
       7  | 28:19.25 |    5:36.50   |      127450      |     152699
       8  | 33:56.00 |    5:18.37   |      152700      |     176586
       9  | 39:14.37 |    4:46.29   |      176587      |     198065
      10  | 44:00.66 |    4:44.00   |      198066      |     219365
      11  | 48:44.66 |    6:29.00   |      219366      |     248540
      12  | 55:13.66 |    2:47.42   |      248541      |     261107
      13  | 58:01.33 |    6:11.00   |      261108      |     288932
Характеристики диапазона извлечения и сообщения об ошибках
Выбранный диапазон
     Имя файла C:\Users\Алексей\Desktop\iPOD\Leaether Strip - Science for the satanic citizen (Remastered).wav
     Пиковый уровень 100.0 %
     Качество диапазона 100.0 %
     CRC теста B77A8352
     CRC копии B77A8352
     Копирование... OK
Ошибок не произошло
AccurateRip: сводка
Трек  1  точное извлечение (доверие 5)  [BEF934A3]
Трек  2  точное извлечение (доверие 5)  [E50C1E31]
Трек  3  точное извлечение (доверие 5)  [86BA89F2]
Трек  4  точное извлечение (доверие 5)  [89D15510]
Трек  5  точное извлечение (доверие 5)  [0466111D]
Трек  6  точное извлечение (доверие 5)  [BF3C2B92]
Трек  7  точное извлечение (доверие 5)  [81532C29]
Трек  8  точное извлечение (доверие 5)  [2D9044E4]
Трек  9  точное извлечение (доверие 5)  [8DB2835E]
Трек 10  точное извлечение (доверие 5)  [0D8F525D]
Трек 11  точное извлечение (доверие 5)  [CCD3D882]
Трек 12  точное извлечение (доверие 5)  [A315C904]
Трек 13  точное извлечение (доверие 5)  [7712DE95]
Все треки извлечены точно
Конец отчёта
Код:
Exact Audio Copy V0.99 prebeta 5 from 4. May 2009
Отчёт EAC об извлечении, выполненном 23. октября 2010, 14:29
Leaether Strip / Science  for the satanic spawn
Дисковод: TSSTcorpCDDVDW TS-L632H   Adapter: 0  ID: 0
Режим чтения                 : Достоверность
Использование точного потока : Да
Отключение кэша аудио        : Да
Использование указателей C2  : Нет
Коррекция смещения при чтении                     : 6
Способность читать области Lead-in и Lead-out     : Нет
Заполнение пропущенных сэмплов тишиной            : Да
Удаление блоков с тишиной в начале и конце        : Нет
При вычислениях CRC использовались нулевые сэмплы : Да
Интерфейс                                         : Встроенный Win32-интерфейс для Win NT/2000
Выходной формат          : Пользовательский кодировщик
Выбранный битрейт        : 1024 kBit/s
Качество                 : Высокий
Добавление ID3-тэга      : Нет
Утилита сжатия           : C:\Program Files\Exact Audio Copy\FLAC\FLAC.EXE
Дополнительные параметры : -6 -V -T "ARTIST=%a" -T "TITLE=%t" -T "ALBUM=%g" -T "DATE=%y" -T "TRACKNUMBER=%n" -T "GENRE=%m" -T "COMMENT=%e" %s -o %d
TOC извлечённого CD
     Трек |   Старт  | Длительность | Начальный сектор | Конечный сектор
    ---------------------------------------------------------------------
       1  |  0:00.00 |    7:47.17   |           0      |      35041
       2  |  7:47.17 |    7:45.00   |       35042      |      69916
       3  | 15:32.17 |    6:52.31   |       69917      |     100847
       4  | 22:24.48 |    6:25.18   |      100848      |     129740
       5  | 28:49.66 |    4:44.12   |      129741      |     151052
       6  | 33:34.03 |    7:24.11   |      151053      |     184363
       7  | 40:58.14 |    7:23.08   |      184364      |     217596
       8  | 48:21.22 |    5:23.36   |      217597      |     241857
       9  | 53:44.58 |    5:08.09   |      241858      |     264966
      10  | 58:52.67 |    6:07.60   |      264967      |     292551
Характеристики диапазона извлечения и сообщения об ошибках
Выбранный диапазон
     Имя файла C:\Users\Алексей\Desktop\iPOD\Leaether Strip - Science  for the satanic spawn.wav
     Пиковый уровень 100.0 %
     Качество диапазона 100.0 %
     CRC теста 99A02820
     CRC копии 99A02820
     Копирование... OK
Ошибок не произошло
AccurateRip: сводка
Трек  1  точное извлечение (доверие 5)  [C5D37716]
Трек  2  точное извлечение (доверие 5)  [E43B4AF3]
Трек  3  точное извлечение (доверие 5)  [48F9096D]
Трек  4  точное извлечение (доверие 5)  [2F400407]
Трек  5  точное извлечение (доверие 5)  [F1A609D6]
Трек  6  точное извлечение (доверие 5)  [D284CB4F]
Трек  7  точное извлечение (доверие 5)  [D85A3E3E]
Трек  8  точное извлечение (доверие 5)  [F8D7D9C3]
Трек  9  точное извлечение (доверие 5)  [818E0294]
Трек 10  точное извлечение (доверие 5)  [D401A95C]
Все треки извлечены точно
Конец отчёта
Код:
REM GENRE EBM
REM DATE 2008
REM DISCID B20F0C0D
REM COMMENT "ExactAudioCopy v0.99pb5"
PERFORMER "Leaether Strip"
TITLE "Science for the satanic citizen (Remastered)"
FILE "Leaether Strip - Science for the satanic citizen (Remastered).flac" WAVE
  TRACK 01 AUDIO
    TITLE "Zyklon B"
    PERFORMER "Leaether Strip"
    FLAGS DCP
    INDEX 01 00:00:00
  TRACK 02 AUDIO
    TITLE "G.A.W.M."
    PERFORMER "Leaether Strip"
    FLAGS DCP
    INDEX 00 05:21:25
    INDEX 01 05:23:25
  TRACK 03 AUDIO
    TITLE "Rotation (Axis Off)"
    PERFORMER "Leaether Strip"
    FLAGS DCP
    INDEX 00 10:45:25
    INDEX 01 10:47:25
  TRACK 04 AUDIO
    TITLE "Satanic Citizen"
    PERFORMER "Leaether Strip"
    FLAGS DCP
    INDEX 00 15:43:00
    INDEX 01 15:45:00
  TRACK 05 AUDIO
    TITLE "What's Hell Really Like?"
    PERFORMER "Leaether Strip"
    FLAGS DCP
    INDEX 00 21:45:00
    INDEX 01 21:47:00
  TRACK 06 AUDIO
    TITLE "Law Of Jante"
    PERFORMER "Leaether Strip"
    FLAGS DCP
    INDEX 00 25:39:00
    INDEX 01 25:41:00
  TRACK 07 AUDIO
    TITLE "Cast-Away"
    PERFORMER "Leaether Strip"
    FLAGS DCP
    INDEX 00 28:17:25
    INDEX 01 28:19:25
  TRACK 08 AUDIO
    TITLE "Torment Me"
    PERFORMER "Leaether Strip"
    FLAGS DCP
    INDEX 00 33:54:00
    INDEX 01 33:56:00
  TRACK 09 AUDIO
    TITLE "Antius"
    PERFORMER "Leaether Strip"
    FLAGS DCP
    INDEX 00 39:12:37
    INDEX 01 39:14:37
  TRACK 10 AUDIO
    TITLE "Nosecandy"
    PERFORMER "Leaether Strip"
    FLAGS DCP
    INDEX 00 43:58:66
    INDEX 01 44:00:66
  TRACK 11 AUDIO
    TITLE "Mohawk"
    PERFORMER "Leaether Strip"
    FLAGS DCP
    INDEX 00 48:42:66
    INDEX 01 48:44:66
  TRACK 12 AUDIO
    TITLE "Black Gold"
    PERFORMER "Leaether Strip"
    FLAGS DCP
    INDEX 00 55:11:66
    INDEX 01 55:13:66
  TRACK 13 AUDIO
    TITLE "G.A.W.M. (Unreleased Remix)"
    PERFORMER "Leaether Strip"
    FLAGS DCP
    INDEX 00 57:59:33
    INDEX 01 58:01:33
Код:
REM GENRE EBM
REM DATE 2008
REM DISCID 7E0F3C0A
REM COMMENT "ExactAudioCopy v0.99pb5"
PERFORMER "Leaether Strip"
TITLE "Science  for the satanic spawn"
FILE "Leaether Strip - Science  for the satanic spawn.flac" WAVE
  TRACK 01 AUDIO
    TITLE "Satanic citizen 09"
    PERFORMER "Leaether Strip"
    FLAGS DCP
    INDEX 01 00:00:00
  TRACK 02 AUDIO
    TITLE "Antius 09"
    PERFORMER "Leaether Strip"
    FLAGS DCP
    INDEX 00 07:45:17
    INDEX 01 07:47:17
  TRACK 03 AUDIO
    TITLE "Rotation 09"
    PERFORMER "Leaether Strip"
    FLAGS DCP
    INDEX 00 15:30:17
    INDEX 01 15:32:17
  TRACK 04 AUDIO
    TITLE "Torment me 09"
    PERFORMER "Leaether Strip"
    FLAGS DCP
    INDEX 00 22:22:48
    INDEX 01 22:24:48
  TRACK 05 AUDIO
    TITLE "Nosecandy 09"
    PERFORMER "Leaether Strip"
    FLAGS DCP
    INDEX 00 28:47:66
    INDEX 01 28:49:66
  TRACK 06 AUDIO
    TITLE "Cast away 09"
    PERFORMER "Leaether Strip"
    FLAGS DCP
    INDEX 00 33:32:03
    INDEX 01 33:34:03
  TRACK 07 AUDIO
    TITLE "Mohawk 09"
    PERFORMER "Leaether Strip"
    FLAGS DCP
    INDEX 00 40:56:14
    INDEX 01 40:58:14
  TRACK 08 AUDIO
    TITLE "Gawm 09"
    PERFORMER "Leaether Strip"
    FLAGS DCP
    INDEX 00 48:19:22
    INDEX 01 48:21:22
  TRACK 09 AUDIO
    TITLE "Law of Jante 09"
    PERFORMER "Leaether Strip"
    FLAGS DCP
    INDEX 00 53:42:58
    INDEX 01 53:44:58
  TRACK 10 AUDIO
    TITLE "Whats hell really like 09"
    PERFORMER "Leaether Strip"
    FLAGS DCP
    INDEX 00 58:50:67
    INDEX 01 58:52:67
Код:
[url=https://fastpic.ru/view/5/2010/1023/232d3b205c41da15ce23b8a1a9b60bc1.jpg.html][img]http://i5.fastpic.ru/thumb/2010/1023/c1/232d3b205c41da15ce23b8a1a9b60bc1.jpeg[/img][/url][url=https://fastpic.ru/view/5/2010/1023/8ae40b2c65db8c74b5eacbe18691f0d8.jpg.html][img]http://i5.fastpic.ru/thumb/2010/1023/d8/8ae40b2c65db8c74b5eacbe18691f0d8.jpeg[/img][/url]
CD 1 - Science For The Satanic Citizen

CD 2 - Science For The Satanic Spawn
CD 1 - "Science For The Satanic Citizen" - полностью ремастированное издание альбома 1990 года + добавленная в ввиде бонуса EP 1991 года "Object V" + эксклюзивный ремикс.
CD 2 - "Science For The Satanic Spawn" - выборочно, полностью переписанный в 2008 году материал с CD 1.
ОГРОМНАЯ БЛАГОДАРНОСТЬ НАШЕМУ КОЛЛЕГЕ KERGARN`у ЗА СКАНЫ!!!
Правила, инструкции, FAQ!!!
Торрент  Добавлен [26 июн 2020, 20:12] Скачать торрент Магнет ссылка
Скачать торрент
[ Размер 22.61 КБ / Просмотров 5 ]

Статус
Проверен 
 
Размер  1007.88 МБ
Приватный: Нет (DHT включён)
.torrent скачан  0
 


     Отправить личное сообщение
   
Страница 1 из 1
Показать сообщения за:  Поле сортировки  
Начать новую тему Ответить на тему


Сейчас этот форум просматривают: нет зарегистрированных пользователей и гости: 0


Вы не можете начинать темы
Вы не можете отвечать на сообщения
Вы не можете редактировать свои сообщения
Вы не можете удалять свои сообщения
Вы не можете добавлять вложения

Перейти:  
cron