Начать новую тему Ответить на тему
Статистика раздачи
Размер: 973.14 МБ | Добавлен: 26 июн 2020, 20:28 | Скачали: 0
Сидеров: 0  [0 байт/сек]    Личеров: 0  [0 байт/сек]
Пред. тема | След. тема 

Автор
Сообщение

СообщениеДобавлено: 26 июн 2020, 20:28 

Ответить с цитатой 

Leaether Strip (Leæther Strip) / Retention No 1 (2CD Box Limited Edition)
#777#777Жанр: EBM, Industrial
Страна-производитель диска: Belgium
Год издания диска: 2007
Издатель (лейбл): Alfa Matrix
Номер по каталогу: AM-2101DCD
Страна: Denmark
Аудио кодек: FLAC (*.flac)
Тип рипа: image+.cue
Битрейт аудио: lossless
Продолжительность: 1:09:46.52 + 1:04:56.62
Источник (релизер): 2CD Box из личной коллекции.
Наличие сканов в содержимом раздачи: да
Треклист:
CD 1 - The Pleasure Of Penetration
01. Die Die Die 4:02
02. Touchdown Breakdown 3:52
03. Razor Blades (Go Berserk) 5:37
04. Leæther Strip Part I 5:24
05. Leæther Strip Part II 4:10
06. Khomeini 4:01
07. Body Machine Body 4:05
08. Go Fuck Your Ass Off! 4:28
09. Break My Back 4:16
10. Change! 4:34
11. Japanese Bodies 4:45
12. Battleground 4:53
13. Leæther Strip Part II (Re-animated) 5:58
14. Fit For Flogging 5:23
15. Murder 4:10
CD 2 - The Pleasure Of Reproduction
01. Japanese Bodies 07 7:34
02. Die Die Die 07 6:33
03. Break My Back 07 6:22
04. Body Machine Body 07 5:47
05. Razor Blades (Go Berserk) 07 4:53
06. Go Fuck Your Ass Off! 07 6:11
07. Battleground 07 7:03
08. Touchdown Breakdown 07 6:18
09. Leæther Strip Part I 07 7:10
10. Leæther Strip Part II 07 7:01
Код:
Exact Audio Copy V0.99 prebeta 5 from 4. May 2009
Отчёт EAC об извлечении, выполненном 23. октября 2010, 18:43
Leaether Strip / The Pleasure Of Penetration (Remastered)
Дисковод: TSSTcorpCDDVDW TS-L632H   Adapter: 0  ID: 0
Режим чтения                 : Достоверность
Использование точного потока : Да
Отключение кэша аудио        : Да
Использование указателей C2  : Нет
Коррекция смещения при чтении                     : 6
Способность читать области Lead-in и Lead-out     : Нет
Заполнение пропущенных сэмплов тишиной            : Да
Удаление блоков с тишиной в начале и конце        : Нет
При вычислениях CRC использовались нулевые сэмплы : Да
Интерфейс                                         : Встроенный Win32-интерфейс для Win NT/2000
Выходной формат          : Пользовательский кодировщик
Выбранный битрейт        : 1024 kBit/s
Качество                 : Высокий
Добавление ID3-тэга      : Нет
Утилита сжатия           : C:\Program Files\Exact Audio Copy\FLAC\FLAC.EXE
Дополнительные параметры : -6 -V -T "ARTIST=%a" -T "TITLE=%t" -T "ALBUM=%g" -T "DATE=%y" -T "TRACKNUMBER=%n" -T "GENRE=%m" -T "COMMENT=%e" %s -o %d
TOC извлечённого CD
     Трек |   Старт  | Длительность | Начальный сектор | Конечный сектор
    ---------------------------------------------------------------------
       1  |  0:00.00 |    4:02.74   |           0      |      18223
       2  |  4:02.74 |    3:52.74   |       18224      |      35697
       3  |  7:55.73 |    5:37.24   |       35698      |      60996
       4  | 13:33.22 |    5:24.36   |       60997      |      85332
       5  | 18:57.58 |    4:10.12   |       85333      |     104094
       6  | 23:07.70 |    4:01.74   |      104095      |     122243
       7  | 27:09.69 |    4:05.49   |      122244      |     140667
       8  | 31:15.43 |    4:28.49   |      140668      |     160816
       9  | 35:44.17 |    4:16.24   |      160817      |     180040
      10  | 40:00.41 |    4:34.51   |      180041      |     200641
      11  | 44:35.17 |    4:45.54   |      200642      |     222070
      12  | 49:20.71 |    4:53.33   |      222071      |     244078
      13  | 54:14.29 |    5:58.32   |      244079      |     270960
      14  | 60:12.61 |    5:23.52   |      270961      |     295237
      15  | 65:36.38 |    4:10.14   |      295238      |     314001
Характеристики диапазона извлечения и сообщения об ошибках
Выбранный диапазон
     Имя файла C:\Users\Алексей\Desktop\iPOD\Leaether Strip - The Pleasure Of Penetration (Remastered).wav
     Пиковый уровень 100.0 %
     Качество диапазона 100.0 %
     CRC теста 6574DF13
     CRC копии 6574DF13
     Копирование... OK
Ошибок не произошло
AccurateRip: сводка
Трек  1  точное извлечение (доверие 8)  [58EC3EFE]
Трек  2  точное извлечение (доверие 8)  [0A96EDF5]
Трек  3  точное извлечение (доверие 8)  [8F37E3F2]
Трек  4  точное извлечение (доверие 8)  [CA4511E8]
Трек  5  точное извлечение (доверие 8)  [FDD4A81A]
Трек  6  точное извлечение (доверие 8)  [841927F2]
Трек  7  точное извлечение (доверие 8)  [BE754F29]
Трек  8  точное извлечение (доверие 8)  [0E213DDC]
Трек  9  точное извлечение (доверие 8)  [1B802F76]
Трек 10  точное извлечение (доверие 8)  [FE5AB18E]
Трек 11  точное извлечение (доверие 8)  [F76E99A5]
Трек 12  точное извлечение (доверие 8)  [F11F40E6]
Трек 13  точное извлечение (доверие 8)  [539E8AA1]
Трек 14  точное извлечение (доверие 8)  [9C01D6B3]
Трек 15  точное извлечение (доверие 7)  [10BC2410]
Все треки извлечены точно
Конец отчёта
Код:
Exact Audio Copy V0.99 prebeta 5 from 4. May 2009
Отчёт EAC об извлечении, выполненном 23. октября 2010, 19:34
Leaether Strip / The Pleasure Of Reproduction
Дисковод: TSSTcorpCDDVDW TS-L632H   Adapter: 0  ID: 0
Режим чтения                 : Достоверность
Использование точного потока : Да
Отключение кэша аудио        : Да
Использование указателей C2  : Нет
Коррекция смещения при чтении                     : 6
Способность читать области Lead-in и Lead-out     : Нет
Заполнение пропущенных сэмплов тишиной            : Да
Удаление блоков с тишиной в начале и конце        : Нет
При вычислениях CRC использовались нулевые сэмплы : Да
Интерфейс                                         : Встроенный Win32-интерфейс для Win NT/2000
Выходной формат          : Пользовательский кодировщик
Выбранный битрейт        : 1024 kBit/s
Качество                 : Высокий
Добавление ID3-тэга      : Нет
Утилита сжатия           : C:\Program Files\Exact Audio Copy\FLAC\FLAC.EXE
Дополнительные параметры : -6 -V -T "ARTIST=%a" -T "TITLE=%t" -T "ALBUM=%g" -T "DATE=%y" -T "TRACKNUMBER=%n" -T "GENRE=%m" -T "COMMENT=%e" %s -o %d
TOC извлечённого CD
     Трек |   Старт  | Длительность | Начальный сектор | Конечный сектор
    ---------------------------------------------------------------------
       1  |  0:00.00 |    7:34.45   |           0      |      34094
       2  |  7:34.45 |    6:33.21   |       34095      |      63590
       3  | 14:07.66 |    6:22.24   |       63591      |      92264
       4  | 20:30.15 |    5:47.19   |       92265      |     118308
       5  | 26:17.34 |    4:53.43   |      118309      |     140326
       6  | 31:11.02 |    6:11.14   |      140327      |     168165
       7  | 37:22.16 |    7:03.55   |      168166      |     199945
       8  | 44:25.71 |    6:18.55   |      199946      |     228350
       9  | 50:44.51 |    7:10.33   |      228351      |     260633
      10  | 57:55.09 |    7:01.53   |      260634      |     292261
Характеристики диапазона извлечения и сообщения об ошибках
Выбранный диапазон
     Имя файла C:\Users\Алексей\Desktop\iPOD\Leaether Strip - The Pleasure Of Reproduction.wav
     Пиковый уровень 100.0 %
     Качество диапазона 100.0 %
     CRC теста EEF5F1F2
     CRC копии EEF5F1F2
     Копирование... OK
Ошибок не произошло
AccurateRip: сводка
Трек  1  точное извлечение (доверие 8)  [72730C14]
Трек  2  точное извлечение (доверие 8)  [7B019323]
Трек  3  точное извлечение (доверие 8)  [A437DA6C]
Трек  4  точное извлечение (доверие 8)  [50C493A5]
Трек  5  точное извлечение (доверие 8)  [464FA18E]
Трек  6  точное извлечение (доверие 8)  [C1BE9201]
Трек  7  точное извлечение (доверие 8)  [97105BE8]
Трек  8  точное извлечение (доверие 8)  [5B7F4682]
Трек  9  точное извлечение (доверие 8)  [6772CFA4]
Трек 10  точное извлечение (доверие 8)  [33D623A7]
Все треки извлечены точно
Конец отчёта
Код:
REM GENRE EBM
REM DATE 2007
REM DISCID E4105A0F
REM COMMENT "ExactAudioCopy v0.99pb5"
PERFORMER "Leaether Strip"
TITLE "The Pleasure Of Penetration (Remastered)"
FILE "Leaether Strip - The Pleasure Of Penetration (Remastered).flac" WAVE
  TRACK 01 AUDIO
    TITLE "Die Die Die"
    PERFORMER "Leaether Strip"
    FLAGS DCP
    INDEX 01 00:00:00
  TRACK 02 AUDIO
    TITLE "Touchdown Breakdown "
    PERFORMER "Leaether Strip"
    FLAGS DCP
    INDEX 00 04:00:74
    INDEX 01 04:02:74
  TRACK 03 AUDIO
    TITLE "Razor blades (Go Beserk) "
    PERFORMER "Leaether Strip"
    FLAGS DCP
    INDEX 00 07:53:73
    INDEX 01 07:55:73
  TRACK 04 AUDIO
    TITLE "Leaether Strip Part I "
    PERFORMER "Leaether Strip"
    FLAGS DCP
    INDEX 00 13:31:22
    INDEX 01 13:33:22
  TRACK 05 AUDIO
    TITLE "Leaether Strip part II"
    PERFORMER "Leaether Strip"
    FLAGS DCP
    INDEX 00 18:55:58
    INDEX 01 18:57:58
  TRACK 06 AUDIO
    TITLE "Khomeini"
    PERFORMER "Leaether Strip"
    FLAGS DCP
    INDEX 00 23:05:70
    INDEX 01 23:07:70
  TRACK 07 AUDIO
    TITLE "Body Machine Body"
    PERFORMER "Leaether Strip"
    FLAGS DCP
    INDEX 00 27:07:69
    INDEX 01 27:09:69
  TRACK 08 AUDIO
    TITLE "Go fuck your ass off "
    PERFORMER "Leaether Strip"
    FLAGS DCP
    INDEX 00 31:13:43
    INDEX 01 31:15:43
  TRACK 09 AUDIO
    TITLE "Break my back "
    PERFORMER "Leaether Strip"
    FLAGS DCP
    INDEX 00 35:42:17
    INDEX 01 35:44:17
  TRACK 10 AUDIO
    TITLE "Change "
    PERFORMER "Leaether Strip"
    FLAGS DCP
    INDEX 00 39:58:41
    INDEX 01 40:00:41
  TRACK 11 AUDIO
    TITLE "Japanese bodies "
    PERFORMER "Leaether Strip"
    FLAGS DCP
    INDEX 00 44:33:18
    INDEX 01 44:35:17
  TRACK 12 AUDIO
    TITLE "Battleground"
    PERFORMER "Leaether Strip"
    FLAGS DCP
    INDEX 00 49:18:71
    INDEX 01 49:20:71
  TRACK 13 AUDIO
    TITLE "Leaether Strip Part II (Re-animated)"
    PERFORMER "Leaether Strip"
    FLAGS DCP
    INDEX 00 54:12:29
    INDEX 01 54:14:29
  TRACK 14 AUDIO
    TITLE "Fit for flogging "
    PERFORMER "Leaether Strip"
    FLAGS DCP
    INDEX 00 60:10:61
    INDEX 01 60:12:61
  TRACK 15 AUDIO
    TITLE "Murder "
    PERFORMER "Leaether Strip"
    FLAGS DCP
    INDEX 00 65:34:38
    INDEX 01 65:36:38
Код:
REM GENRE EBM
REM DATE 2007
REM DISCID 9A0F380A
REM COMMENT "ExactAudioCopy v0.99pb5"
PERFORMER "Leaether Strip"
TITLE "The Pleasure Of Reproduction"
FILE "Leaether Strip - The Pleasure Of Reproduction.flac" WAVE
  TRACK 01 AUDIO
    TITLE "Japanese bodies 07"
    PERFORMER "Leaether Strip"
    FLAGS DCP
    INDEX 01 00:00:00
  TRACK 02 AUDIO
    TITLE "Die Die Die 07"
    PERFORMER "Leaether Strip"
    FLAGS DCP
    INDEX 00 07:32:45
    INDEX 01 07:34:45
  TRACK 03 AUDIO
    TITLE "Break my back 07"
    PERFORMER "Leaether Strip"
    FLAGS DCP
    INDEX 00 14:05:66
    INDEX 01 14:07:66
  TRACK 04 AUDIO
    TITLE "Body machine body 07"
    PERFORMER "Leaether Strip"
    FLAGS DCP
    INDEX 00 20:28:15
    INDEX 01 20:30:15
  TRACK 05 AUDIO
    TITLE "Razor blades (Go Berserk) 07"
    PERFORMER "Leaether Strip"
    FLAGS DCP
    INDEX 00 26:15:34
    INDEX 01 26:17:34
  TRACK 06 AUDIO
    TITLE "Go fuck your ass off! 07"
    PERFORMER "Leaether Strip"
    FLAGS DCP
    INDEX 00 31:09:02
    INDEX 01 31:11:02
  TRACK 07 AUDIO
    TITLE "Battleground 07"
    PERFORMER "Leaether Strip"
    FLAGS DCP
    INDEX 00 37:20:16
    INDEX 01 37:22:16
  TRACK 08 AUDIO
    TITLE "Touchdown Breakdown 07"
    PERFORMER "Leaether Strip"
    FLAGS DCP
    INDEX 00 44:23:71
    INDEX 01 44:25:71
  TRACK 09 AUDIO
    TITLE "Leaether Strip Part I 07"
    PERFORMER "Leaether Strip"
    FLAGS DCP
    INDEX 00 50:42:51
    INDEX 01 50:44:51
  TRACK 10 AUDIO
    TITLE "Leaether Strip Part II 07"
    PERFORMER "Leaether Strip"
    FLAGS DCP
    INDEX 00 57:53:09
    INDEX 01 57:55:09
Код:
[url=https://fastpic.ru/view/5/2010/1024/9a8002020f9fecffecd7976c92ab5446.jpg.html][img]http://i5.fastpic.ru/thumb/2010/1024/46/9a8002020f9fecffecd7976c92ab5446.jpeg[/img][/url][url=https://fastpic.ru/view/5/2010/1024/b5d8ea6435909b334fc0c83e4c093c97.jpg.html][img]http://i5.fastpic.ru/thumb/2010/1024/97/b5d8ea6435909b334fc0c83e4c093c97.jpeg[/img][/url]
CD 1 - The Pleasure Of Penetration

CD 2 - The Pleasure Of Reproduction
CD 1 - "The Pleasure Of Penetration" - полностью ремастированное издание альбома 1990 года + добавленные в ввиде бонуса Vinyl-single "Japanese Bodies" 1989 года + Maxi-single "Aspects Of Aggression" 1990 года.
CD 2 - "The Pleasure Of Reproduction" - выборочно, полностью переписанный в 2007 году материал с CD 1.
ОГРОМНАЯ БЛАГОДАРНОСТЬ НАШЕМУ КОЛЛЕГЕ KERGARN`у ЗА СКАНЫ!!!
Правила, инструкции, FAQ!!!
Торрент  Добавлен [26 июн 2020, 20:28] Скачать торрент Магнет ссылка
Скачать торрент
[ Размер 22.63 КБ / Просмотров 8 ]

Статус
Проверен 
 
Размер  973.14 МБ
Приватный: Нет (DHT включён)
.torrent скачан  0
 


     Отправить личное сообщение
   
Страница 1 из 1
Показать сообщения за:  Поле сортировки  
Начать новую тему Ответить на тему


Сейчас этот форум просматривают: нет зарегистрированных пользователей и гости: 0


Вы не можете начинать темы
Вы не можете отвечать на сообщения
Вы не можете редактировать свои сообщения
Вы не можете удалять свои сообщения
Вы не можете добавлять вложения

Перейти:  
cron