Начать новую тему Ответить на тему
Статистика раздачи
Размер: 1.09 ГБ | Добавлен: 26 июн 2020, 20:12 | Скачали: 0
Сидеров: 1  [0 байт/сек]    Личеров: 0  [0 байт/сек]
Пред. тема | След. тема 

Автор
Сообщение

СообщениеДобавлено: 26 июн 2020, 20:12 

Ответить с цитатой 

Leaether Strip (Leæther Strip) / Dark Passages + Seasons Change - I Don't (2CD Box Limited Edition)
#777Жанр: EBM, Industrial
Страна-производитель диска: Belgium
Год издания диска: 2010
Издатель (лейбл): Alfa Matrix
Номер по каталогу: AM-1160-DCD
Страна: Denmark
Аудио кодек: FLAC (*.flac)
Тип рипа: image+.cue
Битрейт аудио: lossless
Продолжительность: 1:16:40.37 + 1:19:14.31
Источник (релизер): 2CD Box из личной коллекции.
Наличие сканов в содержимом раздачи: да
Треклист:
CD 1 - Dark Passages (Original Motion Picture Soundtrack)
01. Dark Passages 5:35
02. Twisted Games 7:58
03. Everything Dies 9:03
04. Violence 5:33
05. Embracing Life's Fire 5:41
06. Amanda 13:02
07. The Dead Stare 7:28
08. Lilith 20:21
09. When Hate Takes Over 1:59
CD 2 - Seasons Change - I Don't
01. The End Of The Road 5:47
02. Black Magic Man 5:43
03. Bondage Is Not A Crime 5:42
04. Seasons Change - I Don't 4:58
05. Dead Swan 5:12
06. It's Not Real 2:56
07. It's So Real 3:35
08. Door With No Handle 4:43
09. My Shadow Is Your Home (Extended) 8:47
10. Dark Passages (Extended) 7:57
11. Everything Dies (Extended) 9:02
12. Voluntary Confinement (Secret Mix) 5:16
13. Embracing Life's Fire (Mortiis Remix) 3:50
14. My Shadow Is Your Home (Ehron Vonallen Remix) 5:46
Код:
Exact Audio Copy V0.99 prebeta 5 from 4. May 2009
Отчёт EAC об извлечении, выполненном 31. декабря 2010, 15:20
Leaether Strip / Dark Passages
Дисковод: TSSTcorpCDDVDW TS-L632H   Adapter: 0  ID: 0
Режим чтения                 : Достоверность
Использование точного потока : Да
Отключение кэша аудио        : Да
Использование указателей C2  : Нет
Коррекция смещения при чтении                     : 6
Способность читать области Lead-in и Lead-out     : Нет
Заполнение пропущенных сэмплов тишиной            : Да
Удаление блоков с тишиной в начале и конце        : Нет
При вычислениях CRC использовались нулевые сэмплы : Да
Интерфейс                                         : Встроенный Win32-интерфейс для Win NT/2000
Выходной формат          : Пользовательский кодировщик
Выбранный битрейт        : 1024 kBit/s
Качество                 : Высокий
Добавление ID3-тэга      : Нет
Утилита сжатия           : C:\Program Files\Exact Audio Copy\FLAC\FLAC.EXE
Дополнительные параметры : -6 -V -T "ARTIST=%a" -T "TITLE=%t" -T "ALBUM=%g" -T "DATE=%y" -T "TRACKNUMBER=%n" -T "GENRE=%m" -T "COMMENT=%e" %s -o %d
TOC извлечённого CD
     Трек |   Старт  | Длительность | Начальный сектор | Конечный сектор
    ---------------------------------------------------------------------
       1  |  0:00.00 |    5:35.33   |           0      |      25157
       2  |  5:35.33 |    7:57.41   |       25158      |      60973
       3  | 13:32.74 |    9:02.43   |       60974      |     101666
       4  | 22:35.42 |    5:33.30   |      101667      |     126671
       5  | 28:08.72 |    5:41.03   |      126672      |     152249
       6  | 33:50.00 |   13:02.22   |      152250      |     210921
       7  | 46:52.22 |    7:28.36   |      210922      |     244557
       8  | 54:20.58 |   20:20.48   |      244558      |     336105
       9  | 74:41.31 |    1:59.06   |      336106      |     345036
Характеристики диапазона извлечения и сообщения об ошибках
Выбранный диапазон
     Имя файла C:\Users\Алексей\Desktop\iPOD\Leaether Strip - Dark Passages.wav
     Пиковый уровень 100.0 %
     Качество диапазона 100.0 %
     CRC теста 37A2EE1B
     CRC копии 37A2EE1B
     Копирование... OK
Ошибок не произошло
AccurateRip: сводка
Трек  1  точное извлечение (доверие 1)  [6F537EEA]
Трек  2  точное извлечение (доверие 1)  [7B1AE693]
Трек  3  точное извлечение (доверие 1)  [DF558895]
Трек  4  точное извлечение (доверие 1)  [5A1F392E]
Трек  5  точное извлечение (доверие 1)  [6885C117]
Трек  6  точное извлечение (доверие 1)  [7C3CC1B5]
Трек  7  точное извлечение (доверие 1)  [6D8C0417]
Трек  8  точное извлечение (доверие 1)  [E996D571]
Трек  9  точное извлечение (доверие 1)  [240DA39F]
Все треки извлечены точно
Конец отчёта
Код:
Exact Audio Copy V0.99 prebeta 5 from 4. May 2009
Отчёт EAC об извлечении, выполненном 1. января 2011, 12:18
Leaether Strip / Seasons Change - I Don't
Дисковод: TSSTcorpCDDVDW TS-L632H   Adapter: 0  ID: 0
Режим чтения                 : Достоверность
Использование точного потока : Да
Отключение кэша аудио        : Да
Использование указателей C2  : Нет
Коррекция смещения при чтении                     : 6
Способность читать области Lead-in и Lead-out     : Нет
Заполнение пропущенных сэмплов тишиной            : Да
Удаление блоков с тишиной в начале и конце        : Нет
При вычислениях CRC использовались нулевые сэмплы : Да
Интерфейс                                         : Встроенный Win32-интерфейс для Win NT/2000
Выходной формат          : Пользовательский кодировщик
Выбранный битрейт        : 1024 kBit/s
Качество                 : Высокий
Добавление ID3-тэга      : Нет
Утилита сжатия           : C:\Program Files\Exact Audio Copy\FLAC\FLAC.EXE
Дополнительные параметры : -6 -V -T "ARTIST=%a" -T "TITLE=%t" -T "ALBUM=%g" -T "DATE=%y" -T "TRACKNUMBER=%n" -T "GENRE=%m" -T "COMMENT=%e" %s -o %d
TOC извлечённого CD
     Трек |   Старт  | Длительность | Начальный сектор | Конечный сектор
    ---------------------------------------------------------------------
       1  |  0:00.00 |    5:46.58   |           0      |      26007
       2  |  5:46.58 |    5:42.53   |       26008      |      51710
       3  | 11:29.36 |    5:42.24   |       51711      |      77384
       4  | 17:11.60 |    4:58.24   |       77385      |      99758
       5  | 22:10.09 |    5:11.71   |       99759      |     123154
       6  | 27:22.05 |    2:56.33   |      123155      |     136387
       7  | 30:18.38 |    3:35.22   |      136388      |     152534
       8  | 33:53.60 |    4:42.73   |      152535      |     173757
       9  | 38:36.58 |    8:47.11   |      173758      |     213293
      10  | 47:23.69 |    7:56.50   |      213294      |     249043
      11  | 55:20.44 |    9:02.01   |      249044      |     289694
      12  | 64:22.45 |    5:16.02   |      289695      |     313396
      13  | 69:38.47 |    3:50.09   |      313397      |     330655
      14  | 73:28.56 |    5:45.50   |      330656      |     356580
Характеристики диапазона извлечения и сообщения об ошибках
Выбранный диапазон
     Имя файла C:\Users\Алексей\Desktop\iPOD\Leaether Strip - Seasons Change - I Don't.wav
     Пиковый уровень 100.0 %
     Качество диапазона 99.9 %
     CRC теста 9F873A01
     CRC копии 9F873A01
     Копирование... OK
Ошибок не произошло
AccurateRip: сводка
Трек  1  точное извлечение (доверие 2)  [97E0BE07]
Трек  2  точное извлечение (доверие 2)  [98CF5EFA]
Трек  3  точное извлечение (доверие 2)  [0D0D0EAC]
Трек  4  точное извлечение (доверие 2)  [65798328]
Трек  5  точное извлечение (доверие 2)  [45D7C253]
Трек  6  точное извлечение (доверие 2)  [EB4FD38D]
Трек  7  точное извлечение (доверие 2)  [78AC9386]
Трек  8  точное извлечение (доверие 2)  [BEDD24AD]
Трек  9  точное извлечение (доверие 2)  [B4F4EAEA]
Трек 10  точное извлечение (доверие 2)  [1B64248C]
Трек 11  точное извлечение (доверие 2)  [22BE64F4]
Трек 12  точное извлечение (доверие 2)  [6569F126]
Трек 13  точное извлечение (доверие 2)  [365F1785]
Трек 14  точное извлечение (доверие 2)  [46458597]
Все треки извлечены точно
Конец отчёта
Код:
REM GENRE "EBM Industrial"
REM DATE 2010
REM DISCID 7211F809
REM COMMENT "ExactAudioCopy v0.99pb5"
PERFORMER "Leaether Strip"
TITLE "Dark Passages"
FILE "Leaether Strip - Dark Passages.flac" WAVE
  TRACK 01 AUDIO
    TITLE "Dark passages"
    PERFORMER "Leaether Strip"
    INDEX 01 00:00:00
  TRACK 02 AUDIO
    TITLE "Twisted games"
    PERFORMER "Leaether Strip"
    INDEX 00 05:33:33
    INDEX 01 05:35:33
  TRACK 03 AUDIO
    TITLE "Everything dies"
    PERFORMER "Leaether Strip"
    INDEX 00 13:30:74
    INDEX 01 13:32:74
  TRACK 04 AUDIO
    TITLE "Violence"
    PERFORMER "Leaether Strip"
    INDEX 00 22:33:42
    INDEX 01 22:35:42
  TRACK 05 AUDIO
    TITLE "Embracing life's fire"
    PERFORMER "Leaether Strip"
    INDEX 00 28:06:72
    INDEX 01 28:08:72
  TRACK 06 AUDIO
    TITLE "Amanda"
    PERFORMER "Leaether Strip"
    INDEX 00 33:48:00
    INDEX 01 33:50:00
  TRACK 07 AUDIO
    TITLE "The Dead Stare"
    PERFORMER "Leaether Strip"
    INDEX 00 46:50:22
    INDEX 01 46:52:22
  TRACK 08 AUDIO
    TITLE "Lilith"
    PERFORMER "Leaether Strip"
    INDEX 00 54:18:58
    INDEX 01 54:20:58
  TRACK 09 AUDIO
    TITLE "When hate takes over"
    PERFORMER "Leaether Strip"
    INDEX 00 74:39:31
    INDEX 01 74:41:31
Код:
REM GENRE "EBM industrial"
REM DATE 2010
REM DISCID AB12920E
REM COMMENT "ExactAudioCopy v0.99pb5"
PERFORMER "Leaether Strip"
TITLE "Seasons Change - I Don't"
FILE "Leaether Strip - Seasons Change - I Don't.flac" WAVE
  TRACK 01 AUDIO
    TITLE "The End Of The Road"
    PERFORMER "Leaether Strip"
    INDEX 01 00:00:00
  TRACK 02 AUDIO
    TITLE "Black Magic Man"
    PERFORMER "Leaether Strip"
    INDEX 00 05:44:58
    INDEX 01 05:46:58
  TRACK 03 AUDIO
    TITLE "Bondage Is Not A Crime"
    PERFORMER "Leaether Strip"
    INDEX 00 11:27:36
    INDEX 01 11:29:36
  TRACK 04 AUDIO
    TITLE "Seasons Change - I Don't (feat. Amanda Eisemann)"
    PERFORMER "Leaether Strip"
    INDEX 00 17:09:60
    INDEX 01 17:11:60
  TRACK 05 AUDIO
    TITLE "Dead Swan"
    PERFORMER "Leaether Strip"
    INDEX 00 22:08:09
    INDEX 01 22:10:09
  TRACK 06 AUDIO
    TITLE "It's Not Real"
    PERFORMER "Leaether Strip"
    INDEX 00 27:20:05
    INDEX 01 27:22:05
  TRACK 07 AUDIO
    TITLE "It's So Real"
    PERFORMER "Leaether Strip"
    INDEX 00 30:16:38
    INDEX 01 30:18:38
  TRACK 08 AUDIO
    TITLE "Door With No Handle"
    PERFORMER "Leaether Strip"
    INDEX 00 33:51:60
    INDEX 01 33:53:60
  TRACK 09 AUDIO
    TITLE "My Shadow Is Your Home (Extended)"
    PERFORMER "Leaether Strip"
    INDEX 00 38:34:58
    INDEX 01 38:36:58
  TRACK 10 AUDIO
    TITLE "Dark Passages (Extended)"
    PERFORMER "Leaether Strip"
    INDEX 00 47:21:69
    INDEX 01 47:23:69
  TRACK 11 AUDIO
    TITLE "Everything Dies (Extended)"
    PERFORMER "Leaether Strip"
    INDEX 00 55:18:44
    INDEX 01 55:20:44
  TRACK 12 AUDIO
    TITLE "Voluntary Confinement (Secret mix)"
    PERFORMER "Leaether Strip"
    INDEX 00 64:20:45
    INDEX 01 64:22:45
  TRACK 13 AUDIO
    TITLE "Embracing Life's Fire (Mortiis remix)"
    PERFORMER "Leaether Strip"
    INDEX 00 69:36:47
    INDEX 01 69:38:47
  TRACK 14 AUDIO
    TITLE "My Shadow Is Your Home (Ehron VonAllen remix)"
    PERFORMER "Leaether Strip"
    INDEX 00 73:26:56
    INDEX 01 73:28:56
CD 1 - Dark Passages

CD 2 - Seasons change - I Don' t
ОГРОМНАЯ БЛАГОДАРНОСТЬ НАШЕМУ КОЛЛЕГЕ KERGARN`у ЗА СКАНЫ!!!
Правила, инструкции, FAQ!!!
Торрент  Добавлен [26 июн 2020, 20:12] Скачать торрент Магнет ссылка
Скачать торрент
[ Размер 13.54 КБ / Просмотров 6 ]

Статус
Проверен 
 
Размер  1.09 ГБ
Приватный: Нет (DHT включён)
.torrent скачан  0
 


     Отправить личное сообщение
   
Страница 1 из 1
Показать сообщения за:  Поле сортировки  
Начать новую тему Ответить на тему


Сейчас этот форум просматривают: нет зарегистрированных пользователей и гости: 0


Вы не можете начинать темы
Вы не можете отвечать на сообщения
Вы не можете редактировать свои сообщения
Вы не можете удалять свои сообщения
Вы не можете добавлять вложения

Перейти:  
cron
cron