Начать новую тему Ответить на тему
Статистика раздачи
Размер: 432.86 МБ | Добавлен: 26 июн 2020, 18:55 | Скачали: 0
Сидеров: 0  [0 байт/сек]    Личеров: 0  [0 байт/сек]
Пред. тема | След. тема 

Автор
Сообщение

СообщениеДобавлено: 26 июн 2020, 18:55 

Ответить с цитатой 

Last Influence Of Brain / Two Faces
Жанр: EBM, Industrial
Страна-производитель диска: Slovakia
Год издания диска: 2009
Издатель (лейбл): Aliens Production
Номер по каталогу: AP 20
Страна: Slovakia
Аудио кодек: FLAC (*.flac)
Тип рипа: image+.cue
Битрейт аудио: lossless
Продолжительность: 0:57:35.32
Источник (релизер): CD из личной коллекции.
Наличие сканов в содержимом раздачи: да
Треклист:
01. Smile 5:02
02. Anabela 4:54
03. Judgement 4:51
04. Seven Reasons 5:14
05. Revolution 5:12
06. Three Holes 4:12
07. Your Destiny 5:28
08. Two Faces 4:23
09. Recently 4:04
10. Turn To Dust 4:55
11. You Make Me Sick 4:28
12. Influences 4:52
Код:
Exact Audio Copy V0.99 prebeta 5 from 4. May 2009
Отчёт EAC об извлечении, выполненном 4. декабря 2010, 14:03
Last Influence Of Brain / Two Faces
Дисковод: TSSTcorpCDDVDW TS-L632H   Adapter: 0  ID: 0
Режим чтения                 : Достоверность
Использование точного потока : Да
Отключение кэша аудио        : Да
Использование указателей C2  : Нет
Коррекция смещения при чтении                     : 6
Способность читать области Lead-in и Lead-out     : Нет
Заполнение пропущенных сэмплов тишиной            : Да
Удаление блоков с тишиной в начале и конце        : Нет
При вычислениях CRC использовались нулевые сэмплы : Да
Интерфейс                                         : Встроенный Win32-интерфейс для Win NT/2000
Выходной формат          : Пользовательский кодировщик
Выбранный битрейт        : 1024 kBit/s
Качество                 : Высокий
Добавление ID3-тэга      : Нет
Утилита сжатия           : C:\Program Files\Exact Audio Copy\FLAC\FLAC.EXE
Дополнительные параметры : -6 -V -T "ARTIST=%a" -T "TITLE=%t" -T "ALBUM=%g" -T "DATE=%y" -T "TRACKNUMBER=%n" -T "GENRE=%m" -T "COMMENT=%e" %s -o %d
TOC извлечённого CD
     Трек |   Старт  | Длительность | Начальный сектор | Конечный сектор
    ---------------------------------------------------------------------
       1  |  0:00.00 |    5:02.25   |           0      |      22674
       2  |  5:02.25 |    4:53.54   |       22675      |      44703
       3  |  9:56.04 |    4:50.52   |       44704      |      66505
       4  | 14:46.56 |    5:13.64   |       66506      |      90044
       5  | 20:00.45 |    5:12.08   |       90045      |     113452
       6  | 25:12.53 |    4:11.60   |      113453      |     132337
       7  | 29:24.38 |    5:28.14   |      132338      |     156951
       8  | 34:52.52 |    4:23.18   |      156952      |     176694
       9  | 39:15.70 |    4:04.32   |      176695      |     195026
      10  | 43:20.27 |    4:55.00   |      195027      |     217151
      11  | 48:15.27 |    4:28.18   |      217152      |     237269
      12  | 52:43.45 |    4:51.62   |      237270      |     259156
Характеристики диапазона извлечения и сообщения об ошибках
Выбранный диапазон
     Имя файла C:\Users\Алексей\Desktop\iPOD\Last Influence Of Brain - Two Faces.wav
     Пиковый уровень 100.0 %
     Качество диапазона 100.0 %
     CRC теста 61054C21
     CRC копии 61054C21
     Копирование... OK
Ошибок не произошло
AccurateRip: сводка
Трек  1  нет в базе данных
Трек  2  нет в базе данных
Трек  3  нет в базе данных
Трек  4  нет в базе данных
Трек  5  нет в базе данных
Трек  6  нет в базе данных
Трек  7  нет в базе данных
Трек  8  нет в базе данных
Трек  9  нет в базе данных
Трек 10  нет в базе данных
Трек 11  нет в базе данных
Трек 12  нет в базе данных
Ни одного трека нет в базе AccurateRip
Конец отчёта
Код:
REM GENRE Industrial
REM DATE 2009
REM DISCID AE0D7F0C
REM COMMENT "ExactAudioCopy v0.99pb5"
PERFORMER "Last Influence Of Brain"
TITLE "Two Faces"
FILE "Last Influence Of Brain - Two Faces.flac" WAVE
  TRACK 01 AUDIO
    TITLE "Smile"
    PERFORMER "Last Influence Of Brain"
    INDEX 01 00:00:00
  TRACK 02 AUDIO
    TITLE "Anabela"
    PERFORMER "Last Influence Of Brain"
    INDEX 01 05:02:25
  TRACK 03 AUDIO
    TITLE "Judgement"
    PERFORMER "Last Influence Of Brain"
    INDEX 01 09:56:04
  TRACK 04 AUDIO
    TITLE "Seven Reasons"
    PERFORMER "Last Influence Of Brain"
    INDEX 01 14:46:56
  TRACK 05 AUDIO
    TITLE "Revolution"
    PERFORMER "Last Influence Of Brain"
    INDEX 01 20:00:45
  TRACK 06 AUDIO
    TITLE "Three Holes"
    PERFORMER "Last Influence Of Brain"
    INDEX 01 25:12:53
  TRACK 07 AUDIO
    TITLE "Your Destiny"
    PERFORMER "Last Influence Of Brain"
    INDEX 01 29:24:38
  TRACK 08 AUDIO
    TITLE "Two Faces"
    PERFORMER "Last Influence Of Brain"
    INDEX 01 34:52:52
  TRACK 09 AUDIO
    TITLE "Recently"
    PERFORMER "Last Influence Of Brain"
    INDEX 01 39:15:70
  TRACK 10 AUDIO
    TITLE "Turn To Dust"
    PERFORMER "Last Influence Of Brain"
    INDEX 01 43:20:27
  TRACK 11 AUDIO
    TITLE "You Make Me Sick"
    PERFORMER "Last Influence Of Brain"
    INDEX 01 48:15:27
  TRACK 12 AUDIO
    TITLE "Influences"
    PERFORMER "Last Influence Of Brain"
    INDEX 01 52:43:45
Код:
[url=https://fastpic.ru/view/14/2011/0104/d6689ff622174da1eceafdf1d0910f56.jpg.html][img]http://i14.fastpic.ru/thumb/2011/0104/56/d6689ff622174da1eceafdf1d0910f56.jpeg[/img][/url][url=https://fastpic.ru/view/14/2011/0104/f76db0e8cc099ac85d1f98a77392fd99.jpg.html][img]http://i14.fastpic.ru/thumb/2011/0104/99/f76db0e8cc099ac85d1f98a77392fd99.jpeg[/img][/url][url=https://fastpic.ru/view/14/2011/0104/b29e7eef3ea9553b969d65245f6bb496.jpg.html][img]http://i14.fastpic.ru/thumb/2011/0104/96/b29e7eef3ea9553b969d65245f6bb496.jpeg[/img][/url][url=https://fastpic.ru/view/14/2011/0104/82aab7702bc8175d67281fa51573b6f6.jpg.html][img]http://i14.fastpic.ru/thumb/2011/0104/f6/82aab7702bc8175d67281fa51573b6f6.jpeg[/img][/url]
Код:
[url=http://www.machinistmusic.net/reviews/liobcd2009.html][i][b]Рецензия[/b][/i][/url]
ОГРОМНАЯ БЛАГОДАРНОСТЬ НАШЕМУ КОЛЛЕГЕ KERGARN`у ЗА СКАНЫ!!!
Правила, инструкции, FAQ!!!
Торрент  Добавлен [26 июн 2020, 18:55] Скачать торрент Магнет ссылка
Скачать торрент
[ Размер 17.99 КБ / Просмотров 8 ]

Статус
Проверен 
 
Размер  432.86 МБ
Приватный: Нет (DHT включён)
.torrent скачан  0
 


     Отправить личное сообщение
   
Страница 1 из 1
Показать сообщения за:  Поле сортировки  
Начать новую тему Ответить на тему


Сейчас этот форум просматривают: нет зарегистрированных пользователей и гости: 0


Вы не можете начинать темы
Вы не можете отвечать на сообщения
Вы не можете редактировать свои сообщения
Вы не можете удалять свои сообщения
Вы не можете добавлять вложения

Перейти:  
cron