Начать новую тему Ответить на тему
Статистика раздачи
Размер: 398.89 МБ | Добавлен: 26 июн 2020, 20:16 | Скачали: 0
Сидеров: 0  [0 байт/сек]    Личеров: 0  [0 байт/сек]
Пред. тема | След. тема 

Автор
Сообщение

СообщениеДобавлено: 26 июн 2020, 20:16 

Ответить с цитатой 

VA - Land of Technology (N.I.C., Front Line Assembly, Skinny Puppy) - 1983-1991
Жанр: EBM, Industrial
Носитель: CD
Страна-производитель диска (релиза): n/a
Год издания: n/a
Страна исполнителя (группы): Канада
Аудиокодек: FLAC (*.flac)
Тип рипа: image+.cue
Битрейт аудио: lossless
Продолжительность: 01:06:04
Метод рипа: EAC test+copy
Источник (релизер): CD из личной коллекции
Наличие сканов в содержимом раздачи: да
Треклист:
01. N.I.C. - Greater Elegies (4:17)
02. N.I.C. - Living in two worlds (5:21)
03. Front Line Assembly - Film (Demo 1986) (2:17)
04. Front Line Assembly - Untitled 2 (Nerve War Demo) (4:38)
05. Bill Leeb - N-29 (Demo 1987) (6:48)
06. Skinny Puppy - Sleeping Beast (Back & Force Demos 1983 - 84) (5:43)
07. Skinny Puppy - K-9 (Back & Force Demos 1983 - 84) (3:33)
08. Front Line Assembly - Holy War (Part I) (Insane Music Demos) (3:14)
09. Front Line Assembly - Holy War (Part II) (Insane Music Demos) (2:53)
10. Front Line Assembly - Elusive (Insane Music Demos) (5:58)
11. Front Line Assembly - Lethal Compound (Arhus 5-27-1989) (8:21)
12. Skinny Puppy - Chrisianity (Demos 1986) (1:32)
13. Skinny Puppy - Glasshouses (Demos 1986) (3:19)
14. Skinny Puppy - Ice Breaker (Demos 1986) (3:12)
15. N.I.C. - Dangerous Game (Demo 1991) (4:49)
Код:
Exact Audio Copy V1.1 from 23. June 2015
Отчёт EAC об извлечении, выполненном 25. января 2016, 12:25
Sampler / Land of Technology
Дисковод: Optiarc DVD RW AD-7630A   Adapter: 5  ID: 6
Режим чтения                 : Достоверность
Использование точного потока : Да
Отключение кэша аудио        : Да
Использование указателей C2  : Нет
Коррекция смещения при чтении                     : 48
Способность читать области Lead-in и Lead-out     : Нет
Заполнение пропущенных сэмплов тишиной            : Да
Удаление блоков с тишиной в начале и конце        : Нет
При вычислениях CRC использовались нулевые сэмплы : Да
Интерфейс                                         : Установленный внешний ASPI-интерфейс
Выходной формат          : Пользовательский кодировщик
Выбранный битрейт        : 1024 kBit/s
Качество                 : Высокий
Добавление ID3-тега      : Нет
Утилита сжатия           : C:\Program Files\Exact Audio Copy\FLAC\FLAC.EXE
Дополнительные параметры : -6 -V -T "ARTIST=%artist%" -T "TITLE=%title%" -T "ALBUM=%albumtitle%" -T "DATE=%year%" -T "TRACKNUMBER=%tracknr%" -T "GENRE=%genre%" -T "COMMENT=%comment%" -T "BAND=%albuminterpret%" -T "ALBUMARTIST=%albuminterpret%" -T "COMPOSER=%composer%" %haslyrics%--tag-from-file=LYRICS="%lyricsfile%"%haslyrics% -T "DISCNUMBER=%cdnumber%" -T "TOTALDISCS=%totalcds%" -T "TOTALTRACKS=%numtracks%" %hascover%--picture="%coverfile%"%hascover% %source% -o %dest%
TOC извлечённого CD
     Трек |   Старт  | Длительность | Начальный сектор | Конечный сектор
    ---------------------------------------------------------------------
       1  |  0:00.32 |    4:17.60   |          32      |      19366
       2  |  4:18.17 |    5:21.33   |       19367      |      43474
       3  |  9:39.50 |    2:17.10   |       43475      |      53759
       4  | 11:56.60 |    4:38.22   |       53760      |      74631
       5  | 16:35.07 |    6:48.63   |       74632      |     105294
       6  | 23:23.70 |    5:43.20   |      105295      |     131039
       7  | 29:07.15 |    3:33.72   |      131040      |     147086
       8  | 32:41.12 |    3:14.15   |      147087      |     161651
       9  | 35:55.27 |    2:53.33   |      161652      |     174659
      10  | 38:48.60 |    5:58.62   |      174660      |     201571
      11  | 44:47.47 |    8:21.68   |      201572      |     239214
      12  | 53:09.40 |    1:32.40   |      239215      |     246154
      13  | 54:42.05 |    3:19.37   |      246155      |     261116
      14  | 58:01.42 |    3:12.65   |      261117      |     275581
      15  | 61:14.32 |    4:49.23   |      275582      |     297279
Характеристики диапазона извлечения и сообщения об ошибках
Выбранный диапазон
     Имя файла E:\EXTRACT\NIC\Sampler - Land of Technology.wav
     Пиковый уровень 99.8 %
     Скорость извлечения 5.2 X
     Качество диапазона 99.9 %
     CRC теста 0A7F4AF3
     CRC копии 0A7F4AF3
     Копирование... OK
Ошибок не произошло
Конец отчёта
---- CUETools DB Plugin V2.1.6
[CTDB TOCID: RL8C9broWlcGSmN_RMET5.JlbZ8-] found
Submit result: RL8C9broWlcGSmN_RMET5.JlbZ8- has been confirmed
Track | CTDB Status
  1   | (1/1) Accurately ripped
  2   | (1/1) Accurately ripped
  3   | (1/1) Accurately ripped
  4   | (1/1) Accurately ripped
  5   | (1/1) Accurately ripped
  6   | (1/1) Accurately ripped
  7   | (1/1) Accurately ripped
  8   | (1/1) Accurately ripped
  9   | (1/1) Accurately ripped
 10   | (1/1) Accurately ripped
 11   | (1/1) Accurately ripped
 12   | (1/1) Accurately ripped
 13   | (1/1) Accurately ripped
 14   | (1/1) Accurately ripped
 15   | (1/1) Accurately ripped
Доп. информация: http://www.discogs.com/Various-Land-Of-Technology/release/522088
Правила, инструкции, FAQ!!!
Торрент  Добавлен [26 июн 2020, 20:16] Скачать торрент Магнет ссылка
Скачать торрент
[ Размер 16.43 КБ / Просмотров 5 ]

Статус
Проверен 
 
Размер  398.89 МБ
Приватный: Нет (DHT включён)
.torrent скачан  0
 


     Отправить личное сообщение
   
Страница 1 из 1
Показать сообщения за:  Поле сортировки  
Начать новую тему Ответить на тему


Сейчас этот форум просматривают: нет зарегистрированных пользователей и гости: 0


Вы не можете начинать темы
Вы не можете отвечать на сообщения
Вы не можете редактировать свои сообщения
Вы не можете удалять свои сообщения
Вы не можете добавлять вложения

Перейти:  
cron