Начать новую тему Ответить на тему
Статистика раздачи
Размер: 1.98 ГБ | Добавлен: 26 июн 2020, 17:40 | Скачали: 0
Сидеров: 0  [0 байт/сек]    Личеров: 0  [0 байт/сек]
Пред. тема | След. тема 

Автор
Сообщение

СообщениеДобавлено: 26 июн 2020, 17:40 

Ответить с цитатой 

K.I.F.O.T.H. (Kneel In Front Of The Executioner) / Дискография 1999-2010, 5CD
Жанр: EBM, Industrial
Страна: Slovakia
Год выпуска: 1999-2010
Аудио кодек: FLAC (*.flac)
Тип рипа: image+.cue
Битрейт аудио: lossless
Наличие сканов в содержимом раздачи: да.
Источник: "Spectaclebreakers", "Fundamentum Divisionis", "Violence Corporation" CD из моей личной коллекции.
"Ebola" рип с CD из коллекции друга.
Рип "Acerbity Torrent" получен по обмену от kergarn`a.
Год выпуска диска: 1999
Производитель диска: Out Of Line, Germany
Номер по каталогу: OUT 039
Аудио кодек: FLAC
Тип рипа: image+.cue
Битрейт аудио: lossless
Продолжительность: 0:46:15.46
Треклист:
01. In Front Of The Gate 5:09
02. Crucified Thief 4:43
03. Painspeech 6:01
04. Reconciliation 5:12
05. Gripped Illusion 7:08
06. Agonyxin 3:54
07. Confession 5:49
08. Preparation 5:19
09. Belief 2:55
Код:
Exact Audio Copy V0.99 prebeta 5 from 4. May 2009
Отчёт EAC об извлечении, выполненном 13. августа 2010, 13:18
K.I.F.O.T.H. / Spectaclebreakers
Дисковод: TSSTcorpCDDVDW TS-L632H   Adapter: 0  ID: 0
Режим чтения                 : Достоверность
Использование точного потока : Да
Отключение кэша аудио        : Да
Использование указателей C2  : Нет
Коррекция смещения при чтении                     : 6
Способность читать области Lead-in и Lead-out     : Нет
Заполнение пропущенных сэмплов тишиной            : Да
Удаление блоков с тишиной в начале и конце        : Нет
При вычислениях CRC использовались нулевые сэмплы : Да
Интерфейс                                         : Встроенный Win32-интерфейс для Win NT/2000
Выходной формат          : Пользовательский кодировщик
Выбранный битрейт        : 1024 kBit/s
Качество                 : Высокий
Добавление ID3-тэга      : Нет
Утилита сжатия           : C:\Program Files\Exact Audio Copy\FLAC\FLAC.EXE
Дополнительные параметры : -6 -V -T "ARTIST=%a" -T "TITLE=%t" -T "ALBUM=%g" -T "DATE=%y" -T "TRACKNUMBER=%n" -T "GENRE=%m" -T "COMMENT=%e" %s -o %d
TOC извлечённого CD
     Трек |   Старт  | Длительность | Начальный сектор | Конечный сектор
    ---------------------------------------------------------------------
       1  |  0:00.00 |    5:09.24   |           0      |      23198
       2  |  5:09.24 |    4:43.68   |       23199      |      44491
       3  |  9:53.17 |    6:01.54   |       44492      |      71620
       4  | 15:54.71 |    5:12.66   |       71621      |      95086
       5  | 21:07.62 |    7:08.38   |       95087      |     127224
       6  | 28:16.25 |    3:54.14   |      127225      |     144788
       7  | 32:10.39 |    5:49.61   |      144789      |     171024
       8  | 38:00.25 |    5:19.67   |      171025      |     195016
       9  | 43:20.17 |    2:55.29   |      195017      |     208170
Характеристики диапазона извлечения и сообщения об ошибках
Выбранный диапазон
     Имя файла C:\Users\Алексей\Desktop\iPOD\K.I.F.O.T.H. - Spectaclebreakers.wav
     Пиковый уровень 100.0 %
     Качество диапазона 100.0 %
     CRC теста 99ADF3D3
     CRC копии 99ADF3D3
     Копирование... OK
Ошибок не произошло
AccurateRip: сводка
Трек  1  точность не определена (достоверность 6)  [42ABC25D], AccurateRip вернул [0E5F0138]
Трек  2  точность не определена (достоверность 6)  [D1B096B7], AccurateRip вернул [99BFEF9F]
Трек  3  точность не определена (достоверность 6)  [87A27B53], AccurateRip вернул [A26E1073]
Трек  4  точность не определена (достоверность 6)  [E818C4EA], AccurateRip вернул [DC922C52]
Трек  5  точность не определена (достоверность 6)  [5B7F6803], AccurateRip вернул [D1C5ED8B]
Трек  6  точность не определена (достоверность 6)  [5E7667D5], AccurateRip вернул [D892261D]
Трек  7  точность не определена (достоверность 6)  [5CE243C7], AccurateRip вернул [4EC2C787]
Трек  8  точность не определена (достоверность 6)  [1AB47110], AccurateRip вернул [2CAA6BB8]
Трек  9  точность не определена (достоверность 6)  [59089D72], AccurateRip вернул [9984B37A]
Ни один трек не прошёл проверки на точность
В вашей базе может быть иной вариант штамповки диска
Конец отчёта
Код:
REM GENRE Industrial
REM DATE 1999
REM DISCID 7F0AD709
REM COMMENT "ExactAudioCopy v0.99pb5"
PERFORMER "K.I.F.O.T.H."
TITLE "Spectaclebreakers"
FILE "K.I.F.O.T.H. - Spectaclebreakers.flac" WAVE
  TRACK 01 AUDIO
    TITLE "In Front of the Gate"
    PERFORMER "K.I.F.O.T.H."
    INDEX 01 00:00:00
  TRACK 02 AUDIO
    TITLE "Crucified Thief"
    PERFORMER "K.I.F.O.T.H."
    INDEX 00 05:07:24
    INDEX 01 05:09:24
  TRACK 03 AUDIO
    TITLE "Painspeech"
    PERFORMER "K.I.F.O.T.H."
    INDEX 00 09:51:17
    INDEX 01 09:53:17
  TRACK 04 AUDIO
    TITLE "Reconciliation"
    PERFORMER "K.I.F.O.T.H."
    INDEX 00 15:52:71
    INDEX 01 15:54:71
  TRACK 05 AUDIO
    TITLE "Gripped Illusion"
    PERFORMER "K.I.F.O.T.H."
    INDEX 00 21:05:62
    INDEX 01 21:07:62
  TRACK 06 AUDIO
    TITLE "Agonyxin"
    PERFORMER "K.I.F.O.T.H."
    INDEX 00 28:14:25
    INDEX 01 28:16:25
  TRACK 07 AUDIO
    TITLE "Confession"
    PERFORMER "K.I.F.O.T.H."
    INDEX 00 32:08:39
    INDEX 01 32:10:39
  TRACK 08 AUDIO
    TITLE "Preparation"
    PERFORMER "K.I.F.O.T.H."
    INDEX 00 37:58:25
    INDEX 01 38:00:25
  TRACK 09 AUDIO
    TITLE "Belief"
    PERFORMER "K.I.F.O.T.H."
    INDEX 00 43:18:17
    INDEX 01 43:20:17
#777Год выпуска диска: 2000
Производитель диска: Out Of Line, Germany
Номер по каталогу: OUT 062
Аудио кодек: FLAC
Тип рипа: image+.cue
Битрейт аудио: lossless
Продолжительность: 0:52:56.16
Треклист:
01. Villain 4:38
02. Clandestine And Formidable 4:36
03. Lechery 4:18
04. Restitutio In Integrum (Daylight Condition) 3:59
05. Labyrinth 3:43
06. Censored Divinity 5:50
07. The Query 6:08
08. Latter End Simply 4:19
09. Truth Embrace 4:10
10. Restitutio In Integrum (Nightfall Condition) 4:56
11. Pandora's Clock 5:58
Код:
Exact Audio Copy V0.99 prebeta 5 from 4. May 2009
Отчёт EAC об извлечении, выполненном 14. августа 2010, 14:00
K.I.F.O.T.H. / Fundamentum Divisionis
Дисковод: TSSTcorpCDDVDW TS-L632H   Adapter: 0  ID: 0
Режим чтения                 : Достоверность
Использование точного потока : Да
Отключение кэша аудио        : Да
Использование указателей C2  : Нет
Коррекция смещения при чтении                     : 6
Способность читать области Lead-in и Lead-out     : Нет
Заполнение пропущенных сэмплов тишиной            : Да
Удаление блоков с тишиной в начале и конце        : Нет
При вычислениях CRC использовались нулевые сэмплы : Да
Интерфейс                                         : Встроенный Win32-интерфейс для Win NT/2000
Выходной формат          : Пользовательский кодировщик
Выбранный битрейт        : 1024 kBit/s
Качество                 : Высокий
Добавление ID3-тэга      : Нет
Утилита сжатия           : C:\Program Files\Exact Audio Copy\FLAC\FLAC.EXE
Дополнительные параметры : -6 -V -T "ARTIST=%a" -T "TITLE=%t" -T "ALBUM=%g" -T "DATE=%y" -T "TRACKNUMBER=%n" -T "GENRE=%m" -T "COMMENT=%e" %s -o %d
TOC извлечённого CD
     Трек |   Старт  | Длительность | Начальный сектор | Конечный сектор
    ---------------------------------------------------------------------
       1  |  0:00.00 |    4:40.28   |           0      |      21027
       2  |  4:40.28 |    4:38.72   |       21028      |      41949
       3  |  9:19.25 |    4:19.40   |       41950      |      61414
       4  | 13:38.65 |    4:01.30   |       61415      |      79519
       5  | 17:40.20 |    3:45.09   |       79520      |      96403
       6  | 21:25.29 |    5:51.42   |       96404      |     122770
       7  | 27:16.71 |    6:10.36   |      122771      |     150556
       8  | 33:27.32 |    4:21.42   |      150557      |     170173
       9  | 37:48.74 |    4:12.48   |      170174      |     189121
      10  | 42:01.47 |    4:58.00   |      189122      |     211471
      11  | 46:59.47 |    5:56.44   |      211472      |     238215
Характеристики диапазона извлечения и сообщения об ошибках
Выбранный диапазон
     Имя файла C:\Users\Алексей\Desktop\iPOD\K.I.F.O.T.H. - Fundamentum Divisionis.wav
     Пиковый уровень 99.4 %
     Качество диапазона 99.9 %
     CRC теста E76CB4A4
     CRC копии E76CB4A4
     Копирование... OK
Ошибок не произошло
AccurateRip: сводка
Трек  1  точное извлечение (доверие 2)  [3C9B1FE5]
Трек  2  точное извлечение (доверие 2)  [4B616CEC]
Трек  3  точное извлечение (доверие 2)  [277C1F17]
Трек  4  точное извлечение (доверие 2)  [1F0E0461]
Трек  5  точное извлечение (доверие 2)  [F206878B]
Трек  6  точное извлечение (доверие 2)  [EB4FF54E]
Трек  7  нет в базе данных
Трек  8  точное извлечение (доверие 2)  [1138B725]
Трек  9  нет в базе данных
Трек 10  точное извлечение (доверие 2)  [19266039]
Трек 11  нет в базе данных
 8 трек(и) скопированы точно
 3 трек(и) не содержатся в базе AccurateRip
Некоторые треки не прошли проверку на точность
Конец отчёта
Код:
REM DISCID 800C680B
REM COMMENT "ExactAudioCopy v0.99pb5"
PERFORMER "K.I.F.O.T.H."
TITLE "Fundamentum Divisionis"
FILE "K.I.F.O.T.H. - Fundamentum Divisionis.flac" WAVE
  TRACK 01 AUDIO
    TITLE "Villain"
    PERFORMER "K.I.F.O.T.H."
    INDEX 01 00:00:00
  TRACK 02 AUDIO
    TITLE "Clandestine and formidable"
    PERFORMER "K.I.F.O.T.H."
    INDEX 00 04:38:28
    INDEX 01 04:40:28
  TRACK 03 AUDIO
    TITLE "Lechery"
    PERFORMER "K.I.F.O.T.H."
    INDEX 00 09:17:25
    INDEX 01 09:19:25
  TRACK 04 AUDIO
    TITLE "Restitutio in integrum (Daylight condition)"
    PERFORMER "K.I.F.O.T.H."
    INDEX 00 13:36:65
    INDEX 01 13:38:65
  TRACK 05 AUDIO
    TITLE "Labyrinth"
    PERFORMER "K.I.F.O.T.H."
    INDEX 00 17:38:20
    INDEX 01 17:40:20
  TRACK 06 AUDIO
    TITLE "Censored divinity"
    PERFORMER "K.I.F.O.T.H."
    INDEX 00 21:23:29
    INDEX 01 21:25:29
  TRACK 07 AUDIO
    TITLE "The query"
    PERFORMER "K.I.F.O.T.H."
    INDEX 00 27:14:71
    INDEX 01 27:16:71
  TRACK 08 AUDIO
    TITLE "Latter end simply"
    PERFORMER "K.I.F.O.T.H."
    INDEX 00 33:25:32
    INDEX 01 33:27:32
  TRACK 09 AUDIO
    TITLE "Truth embrace"
    PERFORMER "K.I.F.O.T.H."
    INDEX 00 37:46:74
    INDEX 01 37:48:74
  TRACK 10 AUDIO
    TITLE "Restitutio in integrum (Nightfall condition)"
    PERFORMER "K.I.F.O.T.H."
    INDEX 00 41:59:47
    INDEX 01 42:01:47
  TRACK 11 AUDIO
    TITLE "Pandora's clock"
    PERFORMER "K.I.F.O.T.H."
    INDEX 00 46:57:47
    INDEX 01 46:59:47
#777Год выпуска диска: 2003
Производитель диска: VUZ Records, Germany
Номер по каталогу: VUZ 13
Аудио кодек: FLAC
Тип рипа: image+.cue
Битрейт аудио: lossless
Продолжительность: 0:57:49.38
Треклист:
01. Possessed By The Right To Modify 4:31
02. Euthanasia 5:13
03. El Chiquitins Fou-Chou Da Lou 5:07
04. Release 4:57
05. First Dose 1:44
06. Dependence 5:29
07. Crack Baby 6:22
08. World End (Burning Sector Remix) 4:44
09. Last Sermon 4:48
10. Cage 4:52
11. A Day Cycle 4:20
12. Possessed By The Right To Modify (Disastrous Desire Mix) 5:38
Код:
Exact Audio Copy V0.99 prebeta 5 from 4. May 2009
Отчёт EAC об извлечении, выполненном 13. августа 2010, 22:00
K.I.F.O.T.H. / Ebola
Дисковод: TSSTcorpCDDVDW TS-L632H   Adapter: 0  ID: 0
Режим чтения                 : Достоверность
Использование точного потока : Да
Отключение кэша аудио        : Да
Использование указателей C2  : Нет
Коррекция смещения при чтении                     : 6
Способность читать области Lead-in и Lead-out     : Нет
Заполнение пропущенных сэмплов тишиной            : Да
Удаление блоков с тишиной в начале и конце        : Нет
При вычислениях CRC использовались нулевые сэмплы : Да
Интерфейс                                         : Встроенный Win32-интерфейс для Win NT/2000
Выходной формат          : Пользовательский кодировщик
Выбранный битрейт        : 1024 kBit/s
Качество                 : Высокий
Добавление ID3-тэга      : Нет
Утилита сжатия           : C:\Program Files\Exact Audio Copy\FLAC\FLAC.EXE
Дополнительные параметры : -6 -V -T "ARTIST=%a" -T "TITLE=%t" -T "ALBUM=%g" -T "DATE=%y" -T "TRACKNUMBER=%n" -T "GENRE=%m" -T "COMMENT=%e" %s -o %d
TOC извлечённого CD
     Трек |   Старт  | Длительность | Начальный сектор | Конечный сектор
    ---------------------------------------------------------------------
       1  |  0:00.00 |    4:31.22   |           0      |      20346
       2  |  4:31.22 |    5:13.43   |       20347      |      43864
       3  |  9:44.65 |    5:07.02   |       43865      |      66891
       4  | 14:51.67 |    4:57.01   |       66892      |      89167
       5  | 19:48.68 |    1:44.53   |       89168      |      97020
       6  | 21:33.46 |    5:29.33   |       97021      |     121728
       7  | 27:03.04 |    6:22.12   |      121729      |     150390
       8  | 33:25.16 |    4:44.42   |      150391      |     171732
       9  | 38:09.58 |    4:48.17   |      171733      |     193349
      10  | 42:58.00 |    4:52.66   |      193350      |     215315
      11  | 47:50.66 |    4:20.04   |      215316      |     234819
      12  | 52:10.70 |    5:38.43   |      234820      |     260212
Характеристики диапазона извлечения и сообщения об ошибках
Выбранный диапазон
     Имя файла C:\Users\Алексей\Desktop\iPOD\K.I.F.O.T.H. - Ebola.wav
     Пиковый уровень 100.0 %
     Качество диапазона 100.0 %
     CRC теста B330F994
     CRC копии B330F994
     Копирование... OK
Ошибок не произошло
AccurateRip: сводка
Трек  1  нет в базе данных
Трек  2  нет в базе данных
Трек  3  нет в базе данных
Трек  4  нет в базе данных
Трек  5  нет в базе данных
Трек  6  нет в базе данных
Трек  7  нет в базе данных
Трек  8  нет в базе данных
Трек  9  нет в базе данных
Трек 10  нет в базе данных
Трек 11  нет в базе данных
Трек 12  нет в базе данных
Ни одного трека нет в базе AccurateRip
Конец отчёта
Код:
REM GENRE EBM
REM DISCID A10D8D0C
REM COMMENT "ExactAudioCopy v0.99pb5"
PERFORMER "K.I.F.O.T.H."
TITLE "Ebola"
FILE "K.I.F.O.T.H. - Ebola.flac" WAVE
  TRACK 01 AUDIO
    TITLE "Possessed By The Right To Modify "
    PERFORMER "K.I.F.O.T.H."
    INDEX 01 00:00:00
  TRACK 02 AUDIO
    TITLE "Euthanasia "
    PERFORMER "K.I.F.O.T.H."
    INDEX 01 04:31:22
  TRACK 03 AUDIO
    TITLE "El Chiquitins Fou-Chou Da Lou"
    PERFORMER "K.I.F.O.T.H."
    INDEX 01 09:44:65
  TRACK 04 AUDIO
    TITLE "Release "
    PERFORMER "K.I.F.O.T.H."
    INDEX 01 14:51:67
  TRACK 05 AUDIO
    TITLE "First Dose "
    PERFORMER "K.I.F.O.T.H."
    INDEX 01 19:48:68
  TRACK 06 AUDIO
    TITLE "Dependence "
    PERFORMER "K.I.F.O.T.H."
    INDEX 01 21:33:46
  TRACK 07 AUDIO
    TITLE "Crack Baby"
    PERFORMER "K.I.F.O.T.H."
    INDEX 01 27:03:04
  TRACK 08 AUDIO
    TITLE "World End (Burning Sector Remix)"
    PERFORMER "K.I.F.O.T.H."
    INDEX 01 33:25:16
  TRACK 09 AUDIO
    TITLE "Last Sermon "
    PERFORMER "K.I.F.O.T.H."
    INDEX 01 38:09:58
  TRACK 10 AUDIO
    TITLE "Cage "
    PERFORMER "K.I.F.O.T.H."
    INDEX 01 42:58:00
  TRACK 11 AUDIO
    TITLE "A Day Cycle"
    PERFORMER "K.I.F.O.T.H."
    INDEX 01 47:50:66
  TRACK 12 AUDIO
    TITLE "Possessed By The Right To Modify (Disastrous Desire Mix) "
    PERFORMER "K.I.F.O.T.H."
    INDEX 01 52:10:70
#777Год издания диска: 2007
Издатель (лейбл): Vendetta Music, USA
Номер по каталогу: VM0002
Аудио кодек: FLAC (*.flac)
Тип рипа: image+.cue
Битрейт аудио: lossless
Продолжительность: 1:13:45.57
Треклист:
01. Icon 3:31
02. Proper Behavior 4:51
03. Enslaved 4:29
04. The Wrath 5:23
05. Leaving 6:19
06. The Art Of Faith 3:05
07. Paradox 4:41
08. Malice Monument 2:45
09. Tyranny 3:36
10. Obsequious 3:52
11. The Fleece 5:11
12. Candle 9:36
13. Particles Transmission 1:52
14. Circle 3:39
15. Jezis Kristus 3:44
16. Proper Behavior (Severe Illusion Remix) 5:16
17. Loading Complete 1:48
Код:
Exact Audio Copy V0.99 prebeta 5 from 4. May 2009
Отчёт EAC об извлечении, выполненном 25. декабря 2010, 18:36
K.I.F.O.T.H. / Acerbity Torrent
Дисковод: Optiarc DVD RW AD-7173A   Adapter: 0  ID: 0
Режим чтения                 : Достоверность
Использование точного потока : Да
Отключение кэша аудио        : Да
Использование указателей C2  : Нет
Коррекция смещения при чтении                     : 48
Способность читать области Lead-in и Lead-out     : Нет
Заполнение пропущенных сэмплов тишиной            : Да
Удаление блоков с тишиной в начале и конце        : Нет
При вычислениях CRC использовались нулевые сэмплы : Да
Интерфейс                                         : Установленный внешний ASPI-интерфейс
Выходной формат          : Пользовательский кодировщик
Выбранный битрейт        : 1024 kBit/s
Качество                 : Высокий
Добавление ID3-тэга      : Нет
Утилита сжатия           : C:\Program Files\Exact Audio Copy\flac.exe
Дополнительные параметры : -6 -V -T "ARTIST=%a" -T "TITLE=%t" -T "ALBUM=%g" -T "DATE=%y" -T "TRACKNUMBER=%n" -T "GENRE=%m" -T "COMMENT=%e" %s -o %d
TOC извлечённого CD
     Трек |   Старт  | Длительность | Начальный сектор | Конечный сектор
    ---------------------------------------------------------------------
       1  |  0:00.00 |    3:31.72   |           0      |      15896
       2  |  3:31.72 |    4:51.00   |       15897      |      37721
       3  |  8:22.72 |    4:29.19   |       37722      |      57915
       4  | 12:52.16 |    5:23.44   |       57916      |      82184
       5  | 18:15.60 |    6:19.41   |       82185      |     110650
       6  | 24:35.26 |    3:05.31   |      110651      |     124556
       7  | 27:40.57 |    4:41.42   |      124557      |     145673
       8  | 32:22.24 |    2:45.66   |      145674      |     158114
       9  | 35:08.15 |    3:36.74   |      158115      |     174388
      10  | 38:45.14 |    3:52.22   |      174389      |     191810
      11  | 42:37.36 |    5:11.01   |      191811      |     215136
      12  | 47:48.37 |    9:36.40   |      215137      |     258376
      13  | 57:25.02 |    1:52.73   |      258377      |     266849
      14  | 59:18.00 |    3:39.10   |      266850      |     283284
      15  | 62:57.10 |    3:44.11   |      283285      |     300095
      16  | 66:41.21 |    5:16.03   |      300096      |     323798
      17  | 71:57.24 |    1:48.33   |      323799      |     331931
Характеристики диапазона извлечения и сообщения об ошибках
Выбранный диапазон
     Имя файла H:\СКАЧКА\FLAC\1 TORRENT\K.I.F.O.T.H. - Acerbity Torrent.wav
     Пиковый уровень 99.9 %
     Качество диапазона 99.9 %
     CRC теста F98430B7
     CRC копии F98430B7
     Копирование... OK
Ошибок не произошло
AccurateRip: сводка
Трек  1  точность не определена (достоверность 1)  [FED8899A], AccurateRip вернул [C0553CC9]
Трек  2  точность не определена (достоверность 1)  [EC72FE2C], AccurateRip вернул [45515F3D]
Трек  3  точность не определена (достоверность 1)  [6770834A], AccurateRip вернул [023BFE9C]
Трек  4  точность не определена (достоверность 1)  [D85034CB], AccurateRip вернул [812671E3]
Трек  5  точность не определена (достоверность 1)  [7E44089A], AccurateRip вернул [E7075AF0]
Трек  6  точность не определена (достоверность 1)  [65BA4D0B], AccurateRip вернул [F050954F]
Трек  7  точность не определена (достоверность 1)  [1DE8D963], AccurateRip вернул [969BCBF4]
Трек  8  точность не определена (достоверность 1)  [A47F4F85], AccurateRip вернул [4713FE62]
Трек  9  точность не определена (достоверность 1)  [DFDE406D], AccurateRip вернул [C96980D6]
Трек 10  точность не определена (достоверность 1)  [B2A5DEC7], AccurateRip вернул [A82E1A45]
Трек 11  точность не определена (достоверность 1)  [3BC7B5A7], AccurateRip вернул [2D6E5163]
Трек 12  точность не определена (достоверность 1)  [6BFDBC1B], AccurateRip вернул [E144CD31]
Трек 13  точность не определена (достоверность 1)  [359A29E8], AccurateRip вернул [BF6346BB]
Трек 14  точность не определена (достоверность 1)  [70E30CDA], AccurateRip вернул [71951B01]
Трек 15  точность не определена (достоверность 1)  [CF3C99F5], AccurateRip вернул [D0626431]
Трек 16  точность не определена (достоверность 1)  [8F0A049B], AccurateRip вернул [C9DF94DD]
Трек 17  точность не определена (достоверность 1)  [3FA76FCD], AccurateRip вернул [423FBBE6]
Ни один трек не прошёл проверки на точность
В вашей базе может быть иной вариант штамповки диска
Конец отчёта
Код:
REM GENRE EBM
REM DATE 2007
REM DISCID F2114911
REM COMMENT "ExactAudioCopy v0.99pb5"
PERFORMER "K.I.F.O.T.H."
TITLE "Acerbity Torrent"
FILE "K.I.F.O.T.H. - Acerbity Torrent.flac" WAVE
  TRACK 01 AUDIO
    TITLE "Icon"
    PERFORMER "K.I.F.O.T.H."
    FLAGS DCP
    INDEX 01 00:00:00
  TRACK 02 AUDIO
    TITLE "Proper Behaviour"
    PERFORMER "K.I.F.O.T.H."
    FLAGS DCP
    INDEX 00 03:29:72
    INDEX 01 03:31:72
  TRACK 03 AUDIO
    TITLE "Enslaved"
    PERFORMER "K.I.F.O.T.H."
    FLAGS DCP
    INDEX 00 08:20:72
    INDEX 01 08:22:72
  TRACK 04 AUDIO
    TITLE "The Wrath"
    PERFORMER "K.I.F.O.T.H."
    FLAGS DCP
    INDEX 00 12:50:16
    INDEX 01 12:52:16
  TRACK 05 AUDIO
    TITLE "Leaving"
    PERFORMER "K.I.F.O.T.H."
    FLAGS DCP
    INDEX 00 18:13:60
    INDEX 01 18:15:60
  TRACK 06 AUDIO
    TITLE "The Art Of Faith"
    PERFORMER "K.I.F.O.T.H."
    FLAGS DCP
    INDEX 00 24:33:26
    INDEX 01 24:35:26
  TRACK 07 AUDIO
    TITLE "Paradox"
    PERFORMER "K.I.F.O.T.H."
    FLAGS DCP
    INDEX 00 27:38:57
    INDEX 01 27:40:57
  TRACK 08 AUDIO
    TITLE "Malice Monument"
    PERFORMER "K.I.F.O.T.H."
    FLAGS DCP
    INDEX 00 32:20:24
    INDEX 01 32:22:24
  TRACK 09 AUDIO
    TITLE "Tyranny"
    PERFORMER "K.I.F.O.T.H."
    FLAGS DCP
    INDEX 00 35:06:15
    INDEX 01 35:08:15
  TRACK 10 AUDIO
    TITLE "Obsequious"
    PERFORMER "K.I.F.O.T.H."
    FLAGS DCP
    INDEX 00 38:43:14
    INDEX 01 38:45:14
  TRACK 11 AUDIO
    TITLE "The Fleece"
    PERFORMER "K.I.F.O.T.H."
    FLAGS DCP
    INDEX 00 42:35:36
    INDEX 01 42:37:36
  TRACK 12 AUDIO
    TITLE "Candle"
    PERFORMER "K.I.F.O.T.H."
    FLAGS DCP
    INDEX 00 47:46:37
    INDEX 01 47:48:37
  TRACK 13 AUDIO
    TITLE "Particles Transmission"
    PERFORMER "K.I.F.O.T.H."
    FLAGS DCP
    INDEX 00 57:23:02
    INDEX 01 57:25:02
  TRACK 14 AUDIO
    TITLE "Circle"
    PERFORMER "K.I.F.O.T.H."
    FLAGS DCP
    INDEX 00 59:16:00
    INDEX 01 59:18:00
  TRACK 15 AUDIO
    TITLE "Jezis Kristus"
    PERFORMER "K.I.F.O.T.H."
    FLAGS DCP
    INDEX 00 62:55:10
    INDEX 01 62:57:10
  TRACK 16 AUDIO
    TITLE "Proper Behaviour (Severe Illusions remix)"
    PERFORMER "K.I.F.O.T.H."
    FLAGS DCP
    INDEX 00 66:39:21
    INDEX 01 66:41:21
  TRACK 17 AUDIO
    TITLE "Loading Completed"
    PERFORMER "K.I.F.O.T.H."
    FLAGS DCP
    INDEX 00 71:55:24
    INDEX 01 71:57:24
#777Год издания диска: 2010
Издатель (лейбл): Vendetta Music, USA
Номер по каталогу: VM0022
Аудио кодек: FLAC (*.flac)
Тип рипа: image+.cue
Битрейт аудио: lossless
Продолжительность: 0:45.39.01
Треклист:
01. Microbiotics 3:32
02. Ten Fingers 4:31
03. In Depression 4:20
04. Victim 4:52
05. Jihad 3:33
06. Egotism 4:26
07. Vermicular 5:25
08. Manipulator 5:10
09. Fateway 4:12
10. Moral 5:39
Код:
Exact Audio Copy V0.99 prebeta 5 from 4. May 2009
Отчёт EAC об извлечении, выполненном 15. декабря 2010, 20:06
K.I.F.O.T.H. / Violence Corporation
Дисковод: TSSTcorpCDDVDW TS-L632H   Adapter: 0  ID: 0
Режим чтения                 : Достоверность
Использование точного потока : Да
Отключение кэша аудио        : Да
Использование указателей C2  : Нет
Коррекция смещения при чтении                     : 6
Способность читать области Lead-in и Lead-out     : Нет
Заполнение пропущенных сэмплов тишиной            : Да
Удаление блоков с тишиной в начале и конце        : Нет
При вычислениях CRC использовались нулевые сэмплы : Да
Интерфейс                                         : Встроенный Win32-интерфейс для Win NT/2000
Выходной формат          : Пользовательский кодировщик
Выбранный битрейт        : 1024 kBit/s
Качество                 : Высокий
Добавление ID3-тэга      : Нет
Утилита сжатия           : C:\Program Files\Exact Audio Copy\FLAC\FLAC.EXE
Дополнительные параметры : -6 -V -T "ARTIST=%a" -T "TITLE=%t" -T "ALBUM=%g" -T "DATE=%y" -T "TRACKNUMBER=%n" -T "GENRE=%m" -T "COMMENT=%e" %s -o %d
TOC извлечённого CD
     Трек |   Старт  | Длительность | Начальный сектор | Конечный сектор
    ---------------------------------------------------------------------
       1  |  0:00.00 |    3:31.56   |           0      |      15880
       2  |  3:31.56 |    4:31.08   |       15881      |      36213
       3  |  8:02.64 |    4:19.41   |       36214      |      55679
       4  | 12:22.30 |    4:52.08   |       55680      |      77587
       5  | 17:14.38 |    3:33.27   |       77588      |      93589
       6  | 20:47.65 |    4:25.44   |       93590      |     113508
       7  | 25:13.34 |    5:24.60   |      113509      |     137868
       8  | 30:38.19 |    5:10.19   |      137869      |     161137
       9  | 35:48.38 |    4:11.54   |      161138      |     180016
      10  | 40:00.17 |    5:38.59   |      180017      |     205425
Характеристики диапазона извлечения и сообщения об ошибках
Выбранный диапазон
     Имя файла C:\Users\Алексей\Desktop\iPOD\K.I.F.O.T.H. - Violence Corporation.wav
     Пиковый уровень 100.0 %
     Качество диапазона 100.0 %
     CRC теста 08CFC04E
     CRC копии 08CFC04E
     Копирование... OK
Ошибок не произошло
AccurateRip: сводка
Трек  1  точность не определена (достоверность 2)  [E14E2C5E], AccurateRip вернул [992D8688]
Трек  2  точность не определена (достоверность 2)  [82FAE22C], AccurateRip вернул [498B1E72]
Трек  3  точность не определена (достоверность 2)  [D5CB7836], AccurateRip вернул [15B89523]
Трек  4  точность не определена (достоверность 2)  [106805AF], AccurateRip вернул [3074B8E8]
Трек  5  точность не определена (достоверность 2)  [821D07A7], AccurateRip вернул [53E3C6EA]
Трек  6  точность не определена (достоверность 2)  [3289F755], AccurateRip вернул [9D873791]
Трек  7  точность не определена (достоверность 2)  [9F5D5E9F], AccurateRip вернул [D76FAD6D]
Трек  8  точность не определена (достоверность 2)  [856EC4E5], AccurateRip вернул [39069183]
Трек  9  точность не определена (достоверность 2)  [45B1B502], AccurateRip вернул [97C6D130]
Трек 10  точность не определена (достоверность 2)  [15C38D89], AccurateRip вернул [FE352E58]
Ни один трек не прошёл проверки на точность
В вашей базе может быть иной вариант штамповки диска
Конец отчёта
Код:
REM GENRE EBM
REM DATE 2010
REM DISCID 6A0AB30A
REM COMMENT "ExactAudioCopy v0.99pb5"
PERFORMER "K.I.F.O.T.H."
TITLE "Violence Corporation"
FILE "K.I.F.O.T.H. - Violence Corporation.flac" WAVE
  TRACK 01 AUDIO
    TITLE "Microbiotics"
    PERFORMER "K.I.F.O.T.H."
    FLAGS DCP
    INDEX 01 00:00:00
  TRACK 02 AUDIO
    TITLE "Ten Fingers"
    PERFORMER "K.I.F.O.T.H."
    FLAGS DCP
    INDEX 01 03:31:56
  TRACK 03 AUDIO
    TITLE "In Depression"
    PERFORMER "K.I.F.O.T.H."
    FLAGS DCP
    INDEX 01 08:02:64
  TRACK 04 AUDIO
    TITLE "Victim"
    PERFORMER "K.I.F.O.T.H."
    FLAGS DCP
    INDEX 01 12:22:30
  TRACK 05 AUDIO
    TITLE "Jihad"
    PERFORMER "K.I.F.O.T.H."
    FLAGS DCP
    INDEX 01 17:14:38
  TRACK 06 AUDIO
    TITLE "Egotism"
    PERFORMER "K.I.F.O.T.H."
    FLAGS DCP
    INDEX 01 20:47:65
  TRACK 07 AUDIO
    TITLE "Vermicular"
    PERFORMER "K.I.F.O.T.H."
    FLAGS DCP
    INDEX 01 25:13:34
  TRACK 08 AUDIO
    TITLE "Manipulator"
    PERFORMER "K.I.F.O.T.H."
    FLAGS DCP
    INDEX 01 30:38:19
  TRACK 09 AUDIO
    TITLE "Fateway"
    PERFORMER "K.I.F.O.T.H."
    FLAGS DCP
    INDEX 01 35:48:38
  TRACK 10 AUDIO
    TITLE "Moral"
    PERFORMER "K.I.F.O.T.H."
    FLAGS DCP
    INDEX 01 40:00:17
Выражаю благодарность kergarnи DEHUMANOIDза HQ scans!
Правила, инструкции, FAQ!!!
Торрент  Добавлен [26 июн 2020, 17:40] Скачать торрент Магнет ссылка
Скачать торрент
[ Размер 24.53 КБ / Просмотров 14 ]

Статус
Проверен 
 
Размер  1.98 ГБ
Приватный: Нет (DHT включён)
.torrent скачан  0
 


     Отправить личное сообщение
   
Страница 1 из 1
Показать сообщения за:  Поле сортировки  
Начать новую тему Ответить на тему


Сейчас этот форум просматривают: нет зарегистрированных пользователей и гости: 0


Вы не можете начинать темы
Вы не можете отвечать на сообщения
Вы не можете редактировать свои сообщения
Вы не можете удалять свои сообщения
Вы не можете добавлять вложения

Перейти:  
cron