Начать новую тему Ответить на тему
Статистика раздачи
Размер: 372.03 МБ | Добавлен: 26 июн 2020, 20:27 | Скачали: 0
Сидеров: 0  [0 байт/сек]    Личеров: 0  [0 байт/сек]
Пред. тема | След. тема 

Автор
Сообщение

СообщениеДобавлено: 26 июн 2020, 20:27 

Ответить с цитатой 

Klinik, The - The Klinik
Жанр: EBM, Industrial
Год выпуска диска: 1988
Производитель диска: Belgium
Аудио кодек: FLAC
Тип рипа: tracks+.cue
Битрейт аудио: lossless
Трэклист:
1 Decay (5:03)
2 Hours And Hours (5:37)
3 Braindamage (4:06)
4 Never Get Out (4:34)
5 Melting Close (3:47)
6 Go Back (4:50)
7 Drowning In Your Sleep (2:14)
8 Memories (5:04)
9 Sick In Your Mind (4:36)
10 Nursery (2:31)
11 World Domination (8:19)
12 End Of The Line (3:33)
13 Plague (6:14)
14 Outside (3:14)
Доп. информация:
Exact Audio Copy V0.99 prebeta 4 from 23. January 2008
EAC extraction logfile from 10. April 2008, 14:30
The Klinik / The Klinik
Used drive : TSSTcorpDVD+-RW TS-H653B Adapter: 1 ID: 0
Read mode : Secure
Utilize accurate stream : Yes
Defeat audio cache : Yes
Make use of C2 pointers : No
Read offset correction : 6
Overread into Lead-In and Lead-Out : No
Fill up missing offset samples with silence : Yes
Delete leading and trailing silent blocks : No
Null samples used in CRC calculations : Yes
Used interface : Installed external ASPI interface
Gap handling : Appended to previous track
Used output format : User Defined Encoder
Selected bitrate : 192 kBit/s
Quality : High
Add ID3 tag : No
Command line compressor : C:\Program Files\Exact Audio Copy\Flac\flac.exe
Additional command line options : -V -8 -T "artist=%a" -T "title=%t" -T "album=%g" -T "date=%y" -T "tracknumber=%n" -T "genre=%m" %s
TOC of the extracted CD
Track | Start | Length | Start sector | End sector
---------------------------------------------------------
1 | 0:00.32 | 5:03.18 | 32 | 22774
2 | 5:03.50 | 5:37.27 | 22775 | 48076
3 | 10:41.02 | 4:06.70 | 48077 | 66596
4 | 14:47.72 | 4:34.03 | 66597 | 87149
5 | 19:22.00 | 3:47.12 | 87150 | 104186
6 | 23:09.12 | 4:50.35 | 104187 | 125971
7 | 27:59.47 | 2:14.43 | 125972 | 136064
8 | 30:14.15 | 5:04.25 | 136065 | 158889
9 | 35:18.40 | 4:36.00 | 158890 | 179589
10 | 39:54.40 | 2:31.55 | 179590 | 190969
11 | 42:26.20 | 8:19.37 | 190970 | 228431
12 | 50:45.57 | 3:33.38 | 228432 | 244444
13 | 54:19.20 | 6:14.07 | 244445 | 272501
14 | 60:33.27 | 3:14.48 | 272502 | 287099
Track 1
Filename C:\A\The Klinik - The Klinik [flac]\01 - Decay.wav
Pre-gap length 0:00:02.42
Peak level 84.4 %
Track quality 100.0 %
Test CRC A5446894
Copy CRC A5446894
Accurately ripped (confidence 3) [80813AEC]
Copy OK
Track 2
Filename C:\A\The Klinik - The Klinik [flac]\02 - Hours and Hours.wav
Pre-gap length 0:00:01.93
Peak level 95.1 %
Track quality 99.9 %
Test CRC 8AC90887
Copy CRC 8AC90887
Accurately ripped (confidence 3) [BAB7A180]
Copy OK
Track 3
Filename C:\A\The Klinik - The Klinik [flac]\03 - Braindamage.wav
Pre-gap length 0:00:01.60
Peak level 95.1 %
Track quality 100.0 %
Test CRC E5AFA39C
Copy CRC E5AFA39C
Accurately ripped (confidence 3) [DA03109D]
Copy OK
Track 4
Filename C:\A\The Klinik - The Klinik [flac]\04 - Never get out.wav
Pre-gap length 0:00:02.36
Peak level 95.1 %
Track quality 100.0 %
Test CRC 075AE78E
Copy CRC 075AE78E
Accurately ripped (confidence 2) [D3D21BED]
Copy OK
Track 5
Filename C:\A\The Klinik - The Klinik [flac]\05 - Melting Close.wav
Pre-gap length 0:00:02.20
Peak level 95.0 %
Track quality 100.0 %
Test CRC 348F3589
Copy CRC 348F3589
Accurately ripped (confidence 3) [5841B4E3]
Copy OK
Track 6
Filename C:\A\The Klinik - The Klinik [flac]\06 - Go Back.wav
Pre-gap length 0:00:02.26
Peak level 95.1 %
Track quality 100.0 %
Test CRC 1ECDD1EE
Copy CRC 1ECDD1EE
Accurately ripped (confidence 3) [FDC7D87F]
Copy OK
Track 7
Filename C:\A\The Klinik - The Klinik [flac]\07 - Drowning in your Sleep.wav
Pre-gap length 0:00:01.22
Peak level 95.0 %
Track quality 100.0 %
Test CRC 347DAE9E
Copy CRC 347DAE9E
Accurately ripped (confidence 3) [A999983B]
Copy OK
Track 8
Filename C:\A\The Klinik - The Klinik [flac]\08 - Memories.wav
Pre-gap length 0:00:01.90
Peak level 93.9 %
Track quality 100.0 %
Test CRC 5B0ECC3B
Copy CRC 5B0ECC3B
Accurately ripped (confidence 3) [315C7B8F]
Copy OK
Track 9
Filename C:\A\The Klinik - The Klinik [flac]\09 - Sick in your Mind.wav
Pre-gap length 0:00:02.10
Peak level 90.4 %
Track quality 100.0 %
Test CRC C6F8B610
Copy CRC C6F8B610
Accurately ripped (confidence 2) [D5C0E903]
Copy OK
Track 10
Filename C:\A\The Klinik - The Klinik [flac]\10 - Nursery.wav
Pre-gap length 0:00:02.00
Peak level 90.5 %
Track quality 99.9 %
Test CRC AE225B57
Copy CRC AE225B57
Accurately ripped (confidence 2) [7909D1FC]
Copy OK
Track 11
Filename C:\A\The Klinik - The Klinik [flac]\11 - World Domination.wav
Pre-gap length 0:00:02.17
Peak level 94.6 %
Track quality 100.0 %
Test CRC 48F60E85
Copy CRC 48F60E85
Accurately ripped (confidence 2) [291D225B]
Copy OK
Track 12
Filename C:\A\The Klinik - The Klinik [flac]\12 - End of the Line.wav
Pre-gap length 0:00:01.16
Peak level 93.7 %
Track quality 99.9 %
Test CRC 2CB61C5B
Copy CRC 2CB61C5B
Track not present in AccurateRip database
Copy OK
Track 13
Filename C:\A\The Klinik - The Klinik [flac]\13 - Plague.wav
Pre-gap length 0:00:01.57
Peak level 94.0 %
Track quality 100.0 %
Test CRC C89FCD55
Copy CRC C89FCD55
Track not present in AccurateRip database
Copy OK
Track 14
Filename C:\A\The Klinik - The Klinik [flac]\14 - Outside.wav
Pre-gap length 0:00:01.93
Peak level 94.0 %
Track quality 100.0 %
Test CRC 50FB6859
Copy CRC 50FB6859
Track not present in AccurateRip database
Copy OK
11 track(s) accurately ripped
3 track(s) not present in the AccurateRip database
Some tracks could not be verified as accurate
No errors occurred
End of status report
Label: Antler Records
Catalog#: Antler 081 CD
Format: CD, Compilation
Credits: Artwork By [Cover] - Guy Drieghe D.
Lyrics By - Dirk Ivens
Mastered By [Digitally Mastered] - Erwin Sampermans
Music By - Mark Verhaeghen
Producer - Klinik, The
Notes: Selections from Melting Close + Sabotage (1-5), Pain And Pleasure (6-7), Fear (8-10) and Plague (11-14)
Правила, инструкции, FAQ!!!
Торрент  Добавлен [26 июн 2020, 20:27] Скачать торрент Магнет ссылка
Скачать торрент
[ Размер 15.85 КБ / Просмотров 3 ]

Статус
Проверен 
 
Размер  372.03 МБ
Приватный: Нет (DHT включён)
.torrent скачан  0
 


     Отправить личное сообщение
   
Страница 1 из 1
Показать сообщения за:  Поле сортировки  
Начать новую тему Ответить на тему


Сейчас этот форум просматривают: нет зарегистрированных пользователей и гости: 0


Вы не можете начинать темы
Вы не можете отвечать на сообщения
Вы не можете редактировать свои сообщения
Вы не можете удалять свои сообщения
Вы не можете добавлять вложения

Перейти:  
cron