Начать новую тему Ответить на тему
Статистика раздачи
Размер: 837.67 МБ | Добавлен: 26 июн 2020, 20:19 | Скачали: 0
Сидеров: 0  [0 байт/сек]    Личеров: 0  [0 байт/сек]
Пред. тема | След. тема 

Автор
Сообщение

СообщениеДобавлено: 26 июн 2020, 20:19 

Ответить с цитатой 

Kash / Herzflut
Жанр: EBM, Industrial
Страна-производитель диска: Germany
Год издания диска: 2005
Издатель (лейбл): Electro Shock Records
Номер по каталогу: E-Shock-CD 005
Страна: Germany
Аудиокодек: FLAC (*.flac)
Тип рипа: image+.cue
Битрейт аудио: lossless
Продолжительность: 0:49:48.40 + 1:08:50.07
Источник (релизер): Собственный рип
Наличие сканов в содержимом раздачи: нет
Треклист:
CD 1
01. Am Anfang [0:01:20.34]
02. Körpertriebe [0:03:45.07]
03. Stück Für Stück [0:04:19.15]
04. One Nite Stand [0:04:14.60]
05. Erlkönig [0:03:20.07]
06. Zwischenspiel [0:01:29.23]
07. Bei Nacht [0:04:37.65]
08. Auf Flügeln [0:03:55.10]
09. Blutrote Engel [0:05:13.07]
10. Die Macht [0:03:36.03]
11. Zauberstab [0:04:13.02]
12. Poppen [0:03:07.08]
13. Herzflut [0:04:04.72]
14. Am Ende [0:02:32.27]

CD 2
01. Stück Für Stück (dbe rmx) [0:04:09.63]
02. One Nite Stand (r@zorbla.de missionarisch) [0:04:17.62]
03. Blutrote Engel (Nurzery rhymes rmx) [0:04:46.49]
04. One Nite Stand (r@zorbla.de monogamer larm) [0:04:14.38]
05. Stolz (lime 'n' dale remix) [0:05:33.59]
06. Körpertriebe (neoplexx rmx) [0:05:13.55]
07. One Nite Stand (infinate beat rmx) [0:04:17.44]
08. Herzflut (crise rmx) [0:04:55.12]
09. Die Macht (g.black the bunkermix) [0:07:33.15]
10. Herzflut (rockwood rmx) [0:04:00.25]
11. Zauberstaub (g.black smooth mix) [0:06:15.33]
12. Die Macht (ren.eg8 cyberpunk research mix) [0:03:37.39]
13. One Nite Stand (r@zorbla.de nekrophile mix) [0:03:33.36]
14. Poppen (oswald kolle tommischung) [0:06:21.02]
Код:
Exact Audio Copy V1.0 beta 3 from 29. August 2011
Отчёт EAC об извлечении, выполненном 29. ноября 2011, 20:03
Kash / Herzflut (CD1)
Дисковод: TSSTcorpCDDVDW SH-S223C   Adapter: 1  ID: 0
Режим чтения                 : Достоверность
Использование точного потока : Да
Отключение кэша аудио        : Да
Использование указателей C2  : Нет
Коррекция смещения при чтении                     : 697
Способность читать области Lead-in и Lead-out     : Нет
Заполнение пропущенных сэмплов тишиной            : Да
Удаление блоков с тишиной в начале и конце        : Нет
При вычислениях CRC использовались нулевые сэмплы : Да
Интерфейс                                         : Встроенный Win32-интерфейс для Win NT/2000
Выходной формат          : Пользовательский кодировщик
Выбранный битрейт        : 768 kBit/s
Качество                 : Высокий
Добавление ID3-тега      : Нет
Утилита сжатия           : C:\Program Files\Exact Audio Copy\FLAC\FLAC.EXE
Дополнительные параметры : -6 -V -T "ARTIST=%artist%" -T "TITLE=%title%" -T "ALBUM=%albumtitle%" -T "DATE=%year%" -T "TRACKNUMBER=%tracknr%" -T "GENRE=%genre%" -T "COMMENT=%comment%" -T "BAND=%albuminterpret%" -T "ALBUMARTIST=%albuminterpret%" -T "COMPOSER=%composer%" %haslyrics%--tag-from-file=LYRICS="%lyricsfile%"%haslyrics% -T "DISCNUMBER=%cdnumber%" -T "TOTALDISCS=%totalcds%" -T "TOTALTRACKS=%numtracks%" %hascover%--picture="%coverfile%"%hascover% %source% -o %dest%
TOC извлечённого CD
     Трек |   Старт  | Длительность | Начальный сектор | Конечный сектор
    ---------------------------------------------------------------------
       1  |  0:00.00 |    1:20.34   |           0      |       6033
       2  |  1:20.34 |    3:45.07   |        6034      |      22915
       3  |  5:05.41 |    4:19.15   |       22916      |      42355
       4  |  9:24.56 |    4:14.60   |       42356      |      61465
       5  | 13:39.41 |    3:20.07   |       61466      |      76472
       6  | 16:59.48 |    1:29.23   |       76473      |      83170
       7  | 18:28.71 |    4:37.65   |       83171      |     104010
       8  | 23:06.61 |    3:55.10   |      104011      |     121645
       9  | 27:01.71 |    5:13.07   |      121646      |     145127
      10  | 32:15.03 |    3:36.03   |      145128      |     161330
      11  | 35:51.06 |    4:13.02   |      161331      |     180307
      12  | 40:04.08 |    3:07.08   |      180308      |     194340
      13  | 43:11.16 |    4:04.72   |      194341      |     212712
      14  | 47:16.13 |    2:32.27   |      212713      |     224139
Характеристики диапазона извлечения и сообщения об ошибках
Выбранный диапазон
     Имя файла C:\EAC\Kash - Herzflut (2005 Electro Shock Records)(Lossless)\CD 1\Kash - Herzflut (CD1).wav
     Пиковый уровень 100.0 %
     Скорость извлечения 3.2 X
     Качество диапазона 100.0 %
     CRC теста F1A05EA8
     CRC копии F1A05EA8
     Копирование... OK
Ошибок не произошло
AccurateRip: сводка
Трек  1  отсутствует в базе данных
Трек  2  отсутствует в базе данных
Трек  3  отсутствует в базе данных
Трек  4  отсутствует в базе данных
Трек  5  отсутствует в базе данных
Трек  6  отсутствует в базе данных
Трек  7  отсутствует в базе данных
Трек  8  отсутствует в базе данных
Трек  9  отсутствует в базе данных
Трек 10  отсутствует в базе данных
Трек 11  отсутствует в базе данных
Трек 12  отсутствует в базе данных
Трек 13  отсутствует в базе данных
Трек 14  отсутствует в базе данных
Ни одного трека нет в базе AccurateRip
Конец отчёта
==== Контрольная сумма отчёта 2F73AEC089D88569C345BD48761136B0BC29B41D4C3C043F7124FE2F75F1DE49 ====
Код:
Exact Audio Copy V1.0 beta 3 from 29. August 2011
Отчёт EAC об извлечении, выполненном 1. декабря 2011, 9:18
Kash / Herzflut (CD2)
Дисковод: TSSTcorpCDDVDW SH-S223C   Adapter: 1  ID: 0
Режим чтения                 : Достоверность
Использование точного потока : Да
Отключение кэша аудио        : Да
Использование указателей C2  : Нет
Коррекция смещения при чтении                     : 697
Способность читать области Lead-in и Lead-out     : Нет
Заполнение пропущенных сэмплов тишиной            : Да
Удаление блоков с тишиной в начале и конце        : Нет
При вычислениях CRC использовались нулевые сэмплы : Да
Интерфейс                                         : Встроенный Win32-интерфейс для Win NT/2000
Выходной формат          : Пользовательский кодировщик
Выбранный битрейт        : 768 kBit/s
Качество                 : Высокий
Добавление ID3-тега      : Нет
Утилита сжатия           : C:\Program Files\Exact Audio Copy\FLAC\FLAC.EXE
Дополнительные параметры : -6 -V -T "ARTIST=%artist%" -T "TITLE=%title%" -T "ALBUM=%albumtitle%" -T "DATE=%year%" -T "TRACKNUMBER=%tracknr%" -T "GENRE=%genre%" -T "COMMENT=%comment%" -T "BAND=%albuminterpret%" -T "ALBUMARTIST=%albuminterpret%" -T "COMPOSER=%composer%" %haslyrics%--tag-from-file=LYRICS="%lyricsfile%"%haslyrics% -T "DISCNUMBER=%cdnumber%" -T "TOTALDISCS=%totalcds%" -T "TOTALTRACKS=%numtracks%" %hascover%--picture="%coverfile%"%hascover% %source% -o %dest%
TOC извлечённого CD
     Трек |   Старт  | Длительность | Начальный сектор | Конечный сектор
    ---------------------------------------------------------------------
       1  |  0:00.00 |    4:09.63   |           0      |      18737
       2  |  4:09.63 |    4:17.62   |       18738      |      38074
       3  |  8:27.50 |    4:46.49   |       38075      |      59573
       4  | 13:14.24 |    4:14.38   |       59574      |      78661
       5  | 17:28.62 |    5:33.59   |       78662      |     103695
       6  | 23:02.46 |    5:13.55   |      103696      |     127225
       7  | 28:16.26 |    4:17.44   |      127226      |     146544
       8  | 32:33.70 |    4:55.12   |      146545      |     168681
       9  | 37:29.07 |    7:33.15   |      168682      |     202671
      10  | 45:02.22 |    4:00.25   |      202672      |     220696
      11  | 49:02.47 |    6:15.33   |      220697      |     248854
      12  | 55:18.05 |    3:37.39   |      248855      |     265168
      13  | 58:55.44 |    3:33.36   |      265169      |     281179
      14  | 62:29.05 |    6:21.02   |      281180      |     309756
Характеристики диапазона извлечения и сообщения об ошибках
Выбранный диапазон
     Имя файла C:\EAC\Kash - Herzflut (2005 Electro Shock Records)(Lossless)\CD 2\Kash - Herzflut (CD2).wav
     Пиковый уровень 100.0 %
     Скорость извлечения 3.5 X
     Качество диапазона 99.9 %
     CRC теста 1F746818
     CRC копии 1F746818
     Копирование... OK
Ошибок не произошло
AccurateRip: сводка
Трек  1  отсутствует в базе данных
Трек  2  отсутствует в базе данных
Трек  3  отсутствует в базе данных
Трек  4  отсутствует в базе данных
Трек  5  отсутствует в базе данных
Трек  6  отсутствует в базе данных
Трек  7  отсутствует в базе данных
Трек  8  отсутствует в базе данных
Трек  9  отсутствует в базе данных
Трек 10  отсутствует в базе данных
Трек 11  отсутствует в базе данных
Трек 12  отсутствует в базе данных
Трек 13  отсутствует в базе данных
Трек 14  отсутствует в базе данных
Ни одного трека нет в базе AccurateRip
Конец отчёта
==== Контрольная сумма отчёта 4074DFCE33504F37A09240D317E6B11416638DCAE8B2120DD92086B618F19C87 ====
Код:
REM GENRE Industrial
REM DATE 2005
REM DISCID AC0BAC0E
REM COMMENT "ExactAudioCopy v1.0b3"
PERFORMER "Kash"
TITLE "Herzflut (CD1)"
FILE "Kash - Herzflut (CD1).flac" WAVE
  TRACK 01 AUDIO
    TITLE "Am Anfang"
    PERFORMER "Kash"
    FLAGS DCP
    INDEX 01 00:00:00
  TRACK 02 AUDIO
    TITLE "Korpertriebe"
    PERFORMER "Kash"
    FLAGS DCP
    INDEX 00 01:18:34
    INDEX 01 01:20:34
  TRACK 03 AUDIO
    TITLE "Stuck Fur Stuck"
    PERFORMER "Kash"
    FLAGS DCP
    INDEX 00 05:03:41
    INDEX 01 05:05:41
  TRACK 04 AUDIO
    TITLE "One Nite Stand"
    PERFORMER "Kash"
    FLAGS DCP
    INDEX 00 09:22:56
    INDEX 01 09:24:56
  TRACK 05 AUDIO
    TITLE "Erlkonig"
    PERFORMER "Kash"
    FLAGS DCP
    INDEX 00 13:37:41
    INDEX 01 13:39:41
  TRACK 06 AUDIO
    TITLE "Zwischenspiel"
    PERFORMER "Kash"
    FLAGS DCP
    INDEX 00 16:57:48
    INDEX 01 16:59:48
  TRACK 07 AUDIO
    TITLE "Bei Nacht"
    PERFORMER "Kash"
    FLAGS DCP
    INDEX 00 18:26:71
    INDEX 01 18:28:71
  TRACK 08 AUDIO
    TITLE "Auf Flugeln"
    PERFORMER "Kash"
    FLAGS DCP
    INDEX 00 23:04:61
    INDEX 01 23:06:61
  TRACK 09 AUDIO
    TITLE "Blutrote Engel"
    PERFORMER "Kash"
    FLAGS DCP
    INDEX 00 26:59:71
    INDEX 01 27:01:71
  TRACK 10 AUDIO
    TITLE "Die Macht"
    PERFORMER "Kash"
    FLAGS DCP
    INDEX 00 32:13:03
    INDEX 01 32:15:03
  TRACK 11 AUDIO
    TITLE "Zauberstab"
    PERFORMER "Kash"
    FLAGS DCP
    INDEX 00 35:49:06
    INDEX 01 35:51:06
  TRACK 12 AUDIO
    TITLE "Poppen"
    PERFORMER "Kash"
    FLAGS DCP
    INDEX 00 40:02:08
    INDEX 01 40:04:08
  TRACK 13 AUDIO
    TITLE "Herzflut"
    PERFORMER "Kash"
    FLAGS DCP
    INDEX 00 43:09:16
    INDEX 01 43:11:16
  TRACK 14 AUDIO
    TITLE "Am Ende"
    PERFORMER "Kash"
    FLAGS DCP
    INDEX 00 47:14:13
    INDEX 01 47:16:13
Код:
REM GENRE Industrial
REM DATE 2005
REM DISCID C410220E
REM COMMENT "ExactAudioCopy v1.0b3"
PERFORMER "Kash"
TITLE "Herzflut (CD2)"
FILE "Kash - Herzflut (CD2).flac" WAVE
  TRACK 01 AUDIO
    TITLE "Stuck Fur Stuck (dbe rmx)"
    PERFORMER "Kash"
    FLAGS DCP
    INDEX 01 00:00:00
  TRACK 02 AUDIO
    TITLE "One Nite Stand (r@zorbla.de missionarisch)"
    PERFORMER "Kash"
    FLAGS DCP
    INDEX 00 04:07:63
    INDEX 01 04:09:63
  TRACK 03 AUDIO
    TITLE "Blutrote Engel (Nurzery rhymes rmx)"
    PERFORMER "Kash"
    FLAGS DCP
    INDEX 00 08:25:50
    INDEX 01 08:27:50
  TRACK 04 AUDIO
    TITLE "One Nite Stand (r@zorbla.de monogamer larm)"
    PERFORMER "Kash"
    FLAGS DCP
    INDEX 00 13:12:24
    INDEX 01 13:14:24
  TRACK 05 AUDIO
    TITLE "Stolz (lime 'n' dale remix)"
    PERFORMER "Kash"
    FLAGS DCP
    INDEX 00 17:26:62
    INDEX 01 17:28:62
  TRACK 06 AUDIO
    TITLE "Korpertriebe (neoplexx rmx)"
    PERFORMER "Kash"
    FLAGS DCP
    INDEX 00 23:00:46
    INDEX 01 23:02:46
  TRACK 07 AUDIO
    TITLE "One Nite Stand (infinate beat rmx)"
    PERFORMER "Kash"
    FLAGS DCP
    INDEX 00 28:14:26
    INDEX 01 28:16:26
  TRACK 08 AUDIO
    TITLE "Herzflut (crise rmx)"
    PERFORMER "Kash"
    FLAGS DCP
    INDEX 00 32:31:70
    INDEX 01 32:33:70
  TRACK 09 AUDIO
    TITLE "Die Macht (g.black the bunkermix)"
    PERFORMER "Kash"
    FLAGS DCP
    INDEX 00 37:27:07
    INDEX 01 37:29:07
  TRACK 10 AUDIO
    TITLE "Herzflut (rockwood rmx)"
    PERFORMER "Kash"
    FLAGS DCP
    INDEX 00 45:00:22
    INDEX 01 45:02:22
  TRACK 11 AUDIO
    TITLE "Zauberstaub (g.black smooth mix)"
    PERFORMER "Kash"
    FLAGS DCP
    INDEX 00 49:00:47
    INDEX 01 49:02:47
  TRACK 12 AUDIO
    TITLE "Die Macht (ren.eg8 cyberpunk research mix)"
    PERFORMER "Kash"
    FLAGS DCP
    INDEX 00 55:16:05
    INDEX 01 55:18:05
  TRACK 13 AUDIO
    TITLE "One Nite Stand (r@zorbla.de nekrophile mix)"
    PERFORMER "Kash"
    FLAGS DCP
    INDEX 00 58:53:44
    INDEX 01 58:55:44
  TRACK 14 AUDIO
    TITLE "Poppen (oswald kolle tommischung)"
    PERFORMER "Kash"
    FLAGS DCP
    INDEX 00 62:27:05
    INDEX 01 62:29:05



[/pre]


Правила, инструкции, FAQ!!!
Торрент  Добавлен [26 июн 2020, 20:19] Скачать торрент Магнет ссылка
Скачать торрент
[ Размер 17.75 КБ / Просмотров 3 ]

Статус
Проверен 
 
Размер  837.67 МБ
Приватный: Нет (DHT включён)
.torrent скачан  0
 


     Отправить личное сообщение
   
Страница 1 из 1
Показать сообщения за:  Поле сортировки  
Начать новую тему Ответить на тему


Сейчас этот форум просматривают: нет зарегистрированных пользователей и гости: 0


Вы не можете начинать темы
Вы не можете отвечать на сообщения
Вы не можете редактировать свои сообщения
Вы не можете удалять свои сообщения
Вы не можете добавлять вложения

Перейти:  
cron