Начать новую тему Ответить на тему
Статистика раздачи
Размер: 665.09 МБ | Добавлен: 26 июн 2020, 16:49 | Скачали: 0
Сидеров: 0  [0 байт/сек]    Личеров: 0  [0 байт/сек]
Пред. тема | След. тема 

Автор
Сообщение

СообщениеДобавлено: 26 июн 2020, 16:49 

Ответить с цитатой 

IWR - Ground Zero (2CD)
Жанр: EBM, Industrial
Год выпуска диска: 2006
Производитель диска: Germany
Аудио кодек: FLAC
Тип рипа: image+.cue
Битрейт аудио: lossless
Продолжительность: 00:48:48 ; 00:48:10
Трэклист:
CD.1
1-01 Carnivore (3:47)
1-02 Sleepwalkers (3:49)
1-03 Access Denied (4:12)
1-04 Crimes Of Insanity (3:27)
1-05 Victimized (4:34)
1-06 Access Denied (4:49)
1-07 Calling You (4:51)
1-08 Pulsar (4:47)
1-09 Recommend Therapy (5:49)
1-10 My Ruin (Bed Of Nails) (8:17)


CD.2

2-01 Carnivore (New Dawn Corp. Remix) (3:45)
2-02 Pulsar (PTYL Flatline Remix) (3:13)
2-03 Access Denied (Supreme Court Remix) (5:14)
2-04 Access Denied (New Dawn Corp. GF Remix) (6:57)
2-05 Carnivore (Regenerator Featuring Vega Pink Remix) (5:25)
2-06 Access Denied (New Dawn Corp. Remix) (4:27)
2-07 Carnivore (Vigilante Remix) (3:14)
2-08 Pulsar (New Dawn Corp. Remix) (5:51)
2-09 Access Denied (Distorted Reality Instrumental Remix) (4:19)
2-10 Pulsar (Amateur God Remix) (5:18)
Exact Audio Copy V0.99 prebeta 4 from 23. January 2008
Отчёт EAC об извлечении, выполненном 14. сентября 2008, 19:17
IWR / Ground Zero (CD.1)
Дисковод: Optiarc DVD RW AD-5200A Adapter: 0 ID: 1
Режим чтения : Достоверность
Использование точного потока : Да
Отключение кэша аудио : Да
Использование указателей C2 : Нет
Коррекция смещения при чтении : 48
Способность читать области Lead-in и Lead-out : Нет
Заполнение пропущенных сэмплов тишиной : Да
Удаление блоков с тишиной в начале и конце : Нет
При вычислениях CRC использовались нулевые сэмплы : Да
Интерфейс : Встроенный Win32-интерфейс для Win NT/2000
Выходной формат : Пользовательский кодировщик
Выбранный битрейт : 1024 kBit/s
Качество : Высокий
Добавление ID3-тэга : Нет
Утилита сжатия : C:\Program Files\Exact Audio Copy\FLAC\FLAC.EXE
Дополнительные параметры : -8 -V -T "ARTIST=%a" -T "TITLE=%t" -T "ALBUM=%g" -T "DATE=%y" -T "TRACKNUMBER=%n" -T "GENRE=%m" -T "COMMENT=%e" %s -o %d
TOC извлечённого CD
Трек | Старт | Длительность | Начальный сектор | Конечный сектор
---------------------------------------------------------------------
1 | 0:00.00 | 3:49.35 | 0 | 17209
2 | 3:49.35 | 3:51.66 | 17210 | 34600
3 | 7:41.26 | 4:14.31 | 34601 | 53681
4 | 11:55.57 | 3:29.08 | 53682 | 69364
5 | 15:24.65 | 4:36.45 | 69365 | 90109
6 | 20:01.35 | 4:51.20 | 90110 | 111954
7 | 24:52.55 | 4:53.64 | 111955 | 133993
8 | 29:46.44 | 4:49.72 | 133994 | 155740
9 | 34:36.41 | 5:51.40 | 155741 | 182105
10 | 40:28.06 | 8:20.52 | 182106 | 219657
Характеристики диапазона извлечения и сообщения об ошибках
Выбранный диапазон
Имя файла C:\IWR - Ground Zero (CD.1).wav
Пиковый уровень 85.9 %
Качество диапазона 100.0 %
CRC теста 697B4F51
CRC копии 697B4F51
Копирование... OK
Ошибок не произошло
Конец отчёта
AUDIOCHECKER v2.0 beta (build 457) - by Dester - opdester@freemail.hu
~~~~~~~~~~~~~~~~~~~~~~~~~~~~~~~~~~
-=== НЕ РЕДАКТИРУЙТЕ ЭТОТ ФАЙЛ! ===-
Путь: ...\IWR - Ground Zero (CD.1)
1 -=- IWR - Ground Zero (CD.1).flac -=- CDDA (100%)
83272148
Exact Audio Copy V0.99 prebeta 4 from 23. January 2008
Отчёт EAC об извлечении, выполненном 14. сентября 2008, 18:42
IWR / Ground Zero (CD.2)
Дисковод: Optiarc DVD RW AD-5200A Adapter: 0 ID: 1
Режим чтения : Достоверность
Использование точного потока : Да
Отключение кэша аудио : Да
Использование указателей C2 : Нет
Коррекция смещения при чтении : 48
Способность читать области Lead-in и Lead-out : Нет
Заполнение пропущенных сэмплов тишиной : Да
Удаление блоков с тишиной в начале и конце : Нет
При вычислениях CRC использовались нулевые сэмплы : Да
Интерфейс : Встроенный Win32-интерфейс для Win NT/2000
Выходной формат : Пользовательский кодировщик
Выбранный битрейт : 1024 kBit/s
Качество : Высокий
Добавление ID3-тэга : Нет
Утилита сжатия : C:\Program Files\Exact Audio Copy\FLAC\FLAC.EXE
Дополнительные параметры : -8 -V -T "ARTIST=%a" -T "TITLE=%t" -T "ALBUM=%g" -T "DATE=%y" -T "TRACKNUMBER=%n" -T "GENRE=%m" -T "COMMENT=%e" %s -o %d
TOC извлечённого CD
Трек | Старт | Длительность | Начальный сектор | Конечный сектор
---------------------------------------------------------------------
1 | 0:00.00 | 3:47.55 | 0 | 17079
2 | 3:47.55 | 3:15.47 | 17080 | 31751
3 | 7:03.27 | 5:16.45 | 31752 | 55496
4 | 12:19.72 | 6:59.46 | 55497 | 86967
5 | 19:19.43 | 5:27.07 | 86968 | 111499
6 | 24:46.50 | 4:29.40 | 111500 | 131714
7 | 29:16.15 | 3:16.66 | 131715 | 146480
8 | 32:33.06 | 5:53.57 | 146481 | 173012
9 | 38:26.63 | 4:21.33 | 173013 | 192620
10 | 42:48.21 | 5:22.13 | 192621 | 216783
Характеристики диапазона извлечения и сообщения об ошибках
Выбранный диапазон
Имя файла C:\IWR - Ground Zero (CD.2).wav
Пиковый уровень 63.1 %
Качество диапазона 100.0 %
CRC теста D69F5E3F
CRC копии D69F5E3F
Копирование... OK
Ошибок не произошло
Конец отчёта
AUDIOCHECKER v2.0 beta (build 457) - by Dester - opdester@freemail.hu
~~~~~~~~~~~~~~~~~~~~~~~~~~~~~~~~~~
-=== НЕ РЕДАКТИРУЙТЕ ЭТОТ ФАЙЛ! ===-
Путь: ...\IWR - Ground Zero (CD.2)
1 -=- IWR - Ground Zero (CD.2).flac -=- CDDA (100%)
84648404
Правила, инструкции, FAQ!!!
Торрент  Добавлен [26 июн 2020, 16:49] Скачать торрент Магнет ссылка
Скачать торрент
[ Размер 14.12 КБ / Просмотров 8 ]

Статус
Проверен 
 
Размер  665.09 МБ
Приватный: Нет (DHT включён)
.torrent скачан  0
 


     Отправить личное сообщение
   
Страница 1 из 1
Показать сообщения за:  Поле сортировки  
Начать новую тему Ответить на тему


Сейчас этот форум просматривают: нет зарегистрированных пользователей и гости: 0


Вы не можете начинать темы
Вы не можете отвечать на сообщения
Вы не можете редактировать свои сообщения
Вы не можете удалять свои сообщения
Вы не можете добавлять вложения

Перейти:  
cron